  0
SECTION
  2
HEADER
  9
$ACADVER
  1
AC1027
  9
$ACADMAINTVER
 70
     8
  9
$DWGCODEPAGE
  3
ANSI_1252
  9
$LASTSAVEDBY
  1
nicoleb
  9
$REQUIREDVERSIONS
160
                 0
  9
$INSBASE
 10
0.0
 20
0.0
 30
0.0
  9
$EXTMIN
 10
-301.665087762407
 20
-327.8046250044155
 30
0.0
  9
$EXTMAX
 10
538.5559155681995
 20
278.629376600175
 30
0.0
  9
$LIMMIN
 10
0.0
 20
0.0
  9
$LIMMAX
 10
420.0
 20
297.0
  9
$ORTHOMODE
 70
     1
  9
$REGENMODE
 70
     1
  9
$FILLMODE
 70
     1
  9
$QTEXTMODE
 70
     0
  9
$MIRRTEXT
 70
     1
  9
$LTSCALE
 40
1.0
  9
$ATTMODE
 70
     1
  9
$TEXTSIZE
 40
3.5
  9
$TRACEWID
 40
1.0
  9
$TEXTSTYLE
  7
Standard
  9
$CLAYER
  8
Mittellinie
  9
$CELTYPE
  6
ByLayer
  9
$CECOLOR
 62
   256
  9
$CELTSCALE
 40
1.0
  9
$DISPSILH
 70
     0
  9
$DIMSCALE
 40
1.0
  9
$DIMASZ
 40
2.5
  9
$DIMEXO
 40
1.0
  9
$DIMDLI
 40
4.0
  9
$DIMRND
 40
0.0
  9
$DIMDLE
 40
0.0
  9
$DIMEXE
 40
1.0
  9
$DIMTP
 40
0.0
  9
$DIMTM
 40
0.0
  9
$DIMTXT
 40
3.5
  9
$DIMCEN
 40
2.5
  9
$DIMTSZ
 40
0.0
  9
$DIMTOL
 70
     0
  9
$DIMLIM
 70
     0
  9
$DIMTIH
 70
     0
  9
$DIMTOH
 70
     0
  9
$DIMSE1
 70
     0
  9
$DIMSE2
 70
     0
  9
$DIMTAD
 70
     1
  9
$DIMZIN
 70
     0
  9
$DIMBLK
  1

  9
$DIMASO
 70
     1
  9
$DIMSHO
 70
     1
  9
$DIMPOST
  1

  9
$DIMAPOST
  1

  9
$DIMALT
 70
     0
  9
$DIMALTD
 70
     3
  9
$DIMALTF
 40
0.0393700787
  9
$DIMLFAC
 40
1.0
  9
$DIMTOFL
 70
     1
  9
$DIMTVP
 40
0.0
  9
$DIMTIX
 70
     0
  9
$DIMSOXD
 70
     0
  9
$DIMSAH
 70
     0
  9
$DIMBLK1
  1

  9
$DIMBLK2
  1

  9
$DIMSTYLE
  2
ISO-25
  9
$DIMCLRD
 70
     0
  9
$DIMCLRE
 70
     0
  9
$DIMCLRT
 70
     0
  9
$DIMTFAC
 40
1.0
  9
$DIMGAP
 40
0.5
  9
$DIMJUST
 70
     0
  9
$DIMSD1
 70
     0
  9
$DIMSD2
 70
     0
  9
$DIMTOLJ
 70
     0
  9
$DIMTZIN
 70
     0
  9
$DIMALTZ
 70
     0
  9
$DIMALTTZ
 70
     0
  9
$DIMUPT
 70
     0
  9
$DIMDEC
 70
     0
  9
$DIMTDEC
 70
     0
  9
$DIMALTU
 70
     2
  9
$DIMALTTD
 70
     3
  9
$DIMTXSTY
  7
Standard
  9
$DIMAUNIT
 70
     0
  9
$DIMADEC
 70
     2
  9
$DIMALTRND
 40
0.0
  9
$DIMAZIN
 70
     0
  9
$DIMDSEP
 70
    44
  9
$DIMATFIT
 70
     3
  9
$DIMFRAC
 70
     0
  9
$DIMLDRBLK
  1

  9
$DIMLUNIT
 70
     2
  9
$DIMLWD
 70
    -2
  9
$DIMLWE
 70
    -2
  9
$DIMTMOVE
 70
     0
  9
$DIMFXL
 40
1.0
  9
$DIMFXLON
 70
     0
  9
$DIMJOGANG
 40
0.7853981633974483
  9
$DIMTFILL
 70
     0
  9
$DIMTFILLCLR
 70
     0
  9
$DIMARCSYM
 70
     0
  9
$DIMLTYPE
  6

  9
$DIMLTEX1
  6

  9
$DIMLTEX2
  6

  9
$DIMTXTDIRECTION
 70
     0
  9
$LUNITS
 70
     2
  9
$LUPREC
 70
     2
  9
$SKETCHINC
 40
1.0
  9
$FILLETRAD
 40
1.5
  9
$AUNITS
 70
     0
  9
$AUPREC
 70
     2
  9
$MENU
  1
.
  9
$ELEVATION
 40
0.0
  9
$PELEVATION
 40
0.0
  9
$THICKNESS
 40
0.0
  9
$LIMCHECK
 70
     0
  9
$CHAMFERA
 40
10.0
  9
$CHAMFERB
 40
10.0
  9
$CHAMFERC
 40
20.0
  9
$CHAMFERD
 40
0.0
  9
$SKPOLY
 70
     0
  9
$TDCREATE
 40
2456125.467967361
  9
$TDUCREATE
 40
2456125.384634028
  9
$TDUPDATE
 40
2457296.625858437
  9
$TDUUPDATE
 40
2457296.542525104
  9
$TDINDWG
 40
0.4498449884
  9
$TDUSRTIMER
 40
2456125.834887812
  9
$USRTIMER
 70
     1
  9
$ANGBASE
 50
0.0
  9
$ANGDIR
 70
     0
  9
$PDMODE
 70
     0
  9
$PDSIZE
 40
-1.0
  9
$PLINEWID
 40
0.0
  9
$SPLFRAME
 70
     0
  9
$SPLINETYPE
 70
     6
  9
$SPLINESEGS
 70
     8
  9
$HANDSEED
  5
2C64
  9
$SURFTAB1
 70
     6
  9
$SURFTAB2
 70
     6
  9
$SURFTYPE
 70
     6
  9
$SURFU
 70
     6
  9
$SURFV
 70
     6
  9
$UCSBASE
  2

  9
$UCSNAME
  2

  9
$UCSORG
 10
0.0
 20
0.0
 30
0.0
  9
$UCSXDIR
 10
1.0
 20
0.0
 30
0.0
  9
$UCSYDIR
 10
0.0
 20
1.0
 30
0.0
  9
$UCSORTHOREF
  2

  9
$UCSORTHOVIEW
 70
     0
  9
$UCSORGTOP
 10
0.0
 20
0.0
 30
0.0
  9
$UCSORGBOTTOM
 10
0.0
 20
0.0
 30
0.0
  9
$UCSORGLEFT
 10
0.0
 20
0.0
 30
0.0
  9
$UCSORGRIGHT
 10
0.0
 20
0.0
 30
0.0
  9
$UCSORGFRONT
 10
0.0
 20
0.0
 30
0.0
  9
$UCSORGBACK
 10
0.0
 20
0.0
 30
0.0
  9
$PUCSBASE
  2

  9
$PUCSNAME
  2

  9
$PUCSORG
 10
0.0
 20
0.0
 30
0.0
  9
$PUCSXDIR
 10
1.0
 20
0.0
 30
0.0
  9
$PUCSYDIR
 10
0.0
 20
1.0
 30
0.0
  9
$PUCSORTHOREF
  2

  9
$PUCSORTHOVIEW
 70
     0
  9
$PUCSORGTOP
 10
0.0
 20
0.0
 30
0.0
  9
$PUCSORGBOTTOM
 10
0.0
 20
0.0
 30
0.0
  9
$PUCSORGLEFT
 10
0.0
 20
0.0
 30
0.0
  9
$PUCSORGRIGHT
 10
0.0
 20
0.0
 30
0.0
  9
$PUCSORGFRONT
 10
0.0
 20
0.0
 30
0.0
  9
$PUCSORGBACK
 10
0.0
 20
0.0
 30
0.0
  9
$USERI1
 70
     0
  9
$USERI2
 70
     0
  9
$USERI3
 70
     0
  9
$USERI4
 70
     0
  9
$USERI5
 70
     0
  9
$USERR1
 40
0.0
  9
$USERR2
 40
0.0
  9
$USERR3
 40
0.0
  9
$USERR4
 40
0.0
  9
$USERR5
 40
0.0
  9
$WORLDVIEW
 70
     1
  9
$SHADEDGE
 70
     3
  9
$SHADEDIF
 70
    70
  9
$TILEMODE
 70
     1
  9
$MAXACTVP
 70
    64
  9
$PINSBASE
 10
0.0
 20
0.0
 30
0.0
  9
$PLIMCHECK
 70
     0
  9
$PEXTMIN
 10
1.000000000000000E+20
 20
1.000000000000000E+20
 30
1.000000000000000E+20
  9
$PEXTMAX
 10
-1.000000000000000E+20
 20
-1.000000000000000E+20
 30
-1.000000000000000E+20
  9
$PLIMMIN
 10
0.0
 20
0.0
  9
$PLIMMAX
 10
0.0
 20
0.0
  9
$UNITMODE
 70
     0
  9
$VISRETAIN
 70
     1
  9
$PLINEGEN
 70
     0
  9
$PSLTSCALE
 70
     1
  9
$TREEDEPTH
 70
  3020
  9
$CMLSTYLE
  2
Standard
  9
$CMLJUST
 70
     0
  9
$CMLSCALE
 40
20.0
  9
$PROXYGRAPHICS
 70
     1
  9
$MEASUREMENT
 70
     1
  9
$CELWEIGHT
370
    -1
  9
$ENDCAPS
280
     0
  9
$JOINSTYLE
280
     0
  9
$LWDISPLAY
290
     0
  9
$INSUNITS
 70
     4
  9
$HYPERLINKBASE
  1

  9
$STYLESHEET
  1

  9
$XEDIT
290
     1
  9
$CEPSNTYPE
380
     0
  9
$PSTYLEMODE
290
     1
  9
$FINGERPRINTGUID
  2
{83A7DEDD-19FF-453F-ACA9-69F4D013CEB5}
  9
$VERSIONGUID
  2
{1B69E5E8-3002-4733-A10F-E13788631A9B}
  9
$EXTNAMES
290
     1
  9
$PSVPSCALE
 40
0.0
  9
$OLESTARTUP
290
     0
  9
$SORTENTS
280
   127
  9
$INDEXCTL
280
     0
  9
$HIDETEXT
280
     0
  9
$XCLIPFRAME
280
     2
  9
$HALOGAP
280
     0
  9
$OBSCOLOR
 70
   257
  9
$OBSLTYPE
280
     0
  9
$INTERSECTIONDISPLAY
280
     0
  9
$INTERSECTIONCOLOR
 70
   257
  9
$DIMASSOC
280
     1
  9
$PROJECTNAME
  1

  9
$CAMERADISPLAY
290
     0
  9
$LENSLENGTH
 40
50.0
  9
$CAMERAHEIGHT
 40
0.0
  9
$STEPSPERSEC
 40
2.0
  9
$STEPSIZE
 40
6.0
  9
$3DDWFPREC
 40
2.0
  9
$PSOLWIDTH
 40
0.25
  9
$PSOLHEIGHT
 40
4.0
  9
$LOFTANG1
 40
1.570796326794896
  9
$LOFTANG2
 40
1.570796326794896
  9
$LOFTMAG1
 40
0.0
  9
$LOFTMAG2
 40
0.0
  9
$LOFTPARAM
 70
     7
  9
$LOFTNORMALS
280
     1
  9
$LATITUDE
 40
37.795
  9
$LONGITUDE
 40
-122.394
  9
$NORTHDIRECTION
 40
0.0
  9
$TIMEZONE
 70
 -8000
  9
$LIGHTGLYPHDISPLAY
280
     1
  9
$TILEMODELIGHTSYNCH
280
     1
  9
$CMATERIAL
347
2F8
  9
$SOLIDHIST
280
     0
  9
$SHOWHIST
280
     1
  9
$DWFFRAME
280
     2
  9
$DGNFRAME
280
     0
  9
$REALWORLDSCALE
290
     1
  9
$INTERFERECOLOR
 62
     1
  9
$INTERFEREOBJVS
345
31A
  9
$INTERFEREVPVS
346
317
  9
$CSHADOW
280
     0
  9
$SHADOWPLANELOCATION
 40
0.0
  0
ENDSEC
  0
SECTION
  2
CLASSES
  0
CLASS
  1
ACDBDICTIONARYWDFLT
  2
AcDbDictionaryWithDefault
  3
ObjectDBX Classes
 90
        0
 91
        1
280
     0
281
     0
  0
CLASS
  1
VISUALSTYLE
  2
AcDbVisualStyle
  3
ObjectDBX Classes
 90
     4095
 91
       24
280
     0
281
     0
  0
CLASS
  1
MATERIAL
  2
AcDbMaterial
  3
ObjectDBX Classes
 90
     1153
 91
        3
280
     0
281
     0
  0
CLASS
  1
SCALE
  2
AcDbScale
  3
ObjectDBX Classes
 90
     1153
 91
       33
280
     0
281
     0
  0
CLASS
  1
TABLESTYLE
  2
AcDbTableStyle
  3
ObjectDBX Classes
 90
     4095
 91
        1
280
     0
281
     0
  0
CLASS
  1
RASTERVARIABLES
  2
AcDbRasterVariables
  3
ISM
 90
        0
 91
        1
280
     0
281
     0
  0
CLASS
  1
DICTIONARYVAR
  2
AcDbDictionaryVar
  3
ObjectDBX Classes
 90
        0
 91
        9
280
     0
281
     0
  0
CLASS
  1
CELLSTYLEMAP
  2
AcDbCellStyleMap
  3
ObjectDBX Classes
 90
     1152
 91
        1
280
     0
281
     0
  0
CLASS
  1
MLEADERSTYLE
  2
AcDbMLeaderStyle
  3
ACDB_MLEADERSTYLE_CLASS
 90
     4095
 91
        1
280
     0
281
     0
  0
CLASS
  1
ACDBSECTIONVIEWSTYLE
  2
AcDbSectionViewStyle
  3
ObjectDBX Classes
 90
     1025
 91
        1
280
     0
281
     0
  0
CLASS
  1
ACDBDETAILVIEWSTYLE
  2
AcDbDetailViewStyle
  3
ObjectDBX Classes
 90
     1025
 91
        1
280
     0
281
     0
  0
CLASS
  1
SORTENTSTABLE
  2
AcDbSortentsTable
  3
ObjectDBX Classes
 90
        0
 91
        6
280
     0
281
     0
  0
CLASS
  1
ACARRAYJIGENTITY
  2
AcArrayJigEntity
  3
ACAD_ARRAY
 90
      129
 91
        0
280
     0
281
     1
  0
CLASS
  1
ACDBASSOCNETWORK
  2
AcDbAssocNetwork
  3
ObjectDBX Classes
 90
     1025
 91
        4
280
     0
281
     0
  0
CLASS
  1
ACDBASSOCACTION
  2
AcDbAssocAction
  3
ObjectDBX Classes
 90
     1025
 91
        4
280
     0
281
     0
  0
CLASS
  1
ACDBASSOCARRAYACTIONBODY
  2
AcDbAssocArrayActionBody
  3
ObjectDBX Classes
 90
     1025
 91
        4
280
     0
281
     0
  0
CLASS
  1
ACDBASSOCVERTEXACTIONPARAM
  2
AcDbAssocVertexActionParam
  3
ObjectDBX Classes
 90
     1025
 91
       12
280
     0
281
     0
  0
CLASS
  1
ACDBASSOCDEPENDENCY
  2
AcDbAssocDependency
  3
ObjectDBX Classes
 90
     1025
 91
       12
280
     0
281
     0
  0
CLASS
  1
ACDBASSOCARRAYRECTANGULARPARAMETERS
  2
AcDbAssocArrayRectangularParameters
  3
ObjectDBX Classes
 90
     1025
 91
        0
280
     0
281
     0
  0
CLASS
  1
ACDB_DYNAMICBLOCKPURGEPREVENTER_VERSION
  2
AcDbDynamicBlockPurgePreventer
  3
ObjectDBX Classes
 90
     1153
 91
        2
280
     0
281
     0
  0
ENDSEC
  0
SECTION
  2
TABLES
  0
TABLE
  2
VPORT
  5
8
330
0
100
AcDbSymbolTable
 70
     1
  0
VPORT
  5
29
330
8
100
AcDbSymbolTableRecord
100
AcDbViewportTableRecord
  2
*Active
 70
     0
 10
0.0
 20
0.0
 11
1.0
 21
1.0
 12
153.1810311577454
 22
97.9752958336585
 13
0.0
 23
0.0
 14
10.0
 24
10.0
 15
10.0
 25
10.0
 16
0.0
 26
0.0
 36
1.0
 17
0.0
 27
0.0
 37
0.0
 40
435.4045161325371
 41
2.099428571428571
 42
50.0
 43
0.0
 44
0.0
 50
0.0
 51
0.0
 71
    16
 72
  2000
 73
     1
 74
     3
 75
     0
 76
     0
 77
     0
 78
     1
281
     0
 65
     1
110
0.0
120
0.0
130
0.0
111
1.0
121
0.0
131
0.0
112
0.0
122
1.0
132
0.0
 79
     0
146
0.0
348
316
 60
     3
 61
     5
292
     1
282
     1
141
0.0
142
0.0
 63
   250
421
  3355443
1001
ACAD_NAV_VCDISPLAY
1070
     3
  0
ENDTAB
  0
TABLE
  2
LTYPE
  5
5
330
0
100
AcDbSymbolTable
 70
     3
  0
LTYPE
  5
14
330
5
100
AcDbSymbolTableRecord
100
AcDbLinetypeTableRecord
  2
ByBlock
 70
     0
  3

 72
    65
 73
     0
 40
0.0
  0
LTYPE
  5
15
330
5
100
AcDbSymbolTableRecord
100
AcDbLinetypeTableRecord
  2
ByLayer
 70
     0
  3

 72
    65
 73
     0
 40
0.0
  0
LTYPE
  5
16
330
5
100
AcDbSymbolTableRecord
100
AcDbLinetypeTableRecord
  2
Continuous
 70
     0
  3
Solid line
 72
    65
 73
     0
 40
0.0
  0
LTYPE
  5
25F7
330
5
100
AcDbSymbolTableRecord
100
AcDbLinetypeTableRecord
  2
MITTE2
 70
     0
  3
Mitte (.5x) ___ _ ___ _ ___ _ ___ _ ___ _ ___
 72
    65
 73
     4
 40
28.575
 49
19.05
 74
     0
 49
-3.174999999999999
 74
     0
 49
3.174999999999999
 74
     0
 49
-3.174999999999999
 74
     0
  0
LTYPE
  5
27C1
330
5
100
AcDbSymbolTableRecord
100
AcDbLinetypeTableRecord
  2
HIDDEN
 70
     0
  3
Hidden __ __ __ __ __ __ __ __ __ __ __ __ __ __
 72
    65
 73
     2
 40
1.905
 49
1.27
 74
     0
 49
-0.635
 74
     0
  0
ENDTAB
  0
TABLE
  2
LAYER
  5
2
102
{ACAD_XDICTIONARY
360
2D4
102
}
330
0
100
AcDbSymbolTable
 70
     8
  0
LAYER
  5
10
102
{ACAD_XDICTIONARY
360
355
102
}
330
2
100
AcDbSymbolTableRecord
100
AcDbLayerTableRecord
  2
0
 70
     0
 62
    -7
  6
Continuous
370
    -3
390
F
347
308
348
0
  0
LAYER
  5
2D3
330
2
100
AcDbSymbolTableRecord
100
AcDbLayerTableRecord
  2
Defpoints
 70
     0
 62
    -7
  6
Continuous
290
     0
370
    -3
390
F
347
308
348
0
  0
LAYER
  5
23A7
330
2
100
AcDbSymbolTableRecord
100
AcDbLayerTableRecord
  2
Kachel
 70
     0
 62
     7
  6
Continuous
370
    -3
390
F
347
308
348
0
1001
AcAecLayerStandard
1000

1000

1001
AcCmTransparency
1071
        0
  0
LAYER
  5
25F4
330
2
100
AcDbSymbolTableRecord
100
AcDbLayerTableRecord
  2
Mittellinie
 70
     0
 62
     7
  6
MITTE2
370
    15
390
F
347
308
348
0
1001
AcAecLayerStandard
1000

1000

1001
AcCmTransparency
1071
        0
  0
LAYER
  5
2616
330
2
100
AcDbSymbolTableRecord
100
AcDbLayerTableRecord
  2
Maße
 70
     0
 62
     5
  6
Continuous
370
    15
390
F
347
308
348
0
1001
AcAecLayerStandard
1000

1000

1001
AcCmTransparency
1071
        0
  0
LAYER
  5
27C2
102
{ACAD_XDICTIONARY
360
27C3
102
}
330
2
100
AcDbSymbolTableRecord
100
AcDbLayerTableRecord
  2
FORMAT
 70
     0
 62
     7
  6
Continuous
370
    -3
390
F
347
308
348
0
  0
LAYER
  5
27C4
330
2
100
AcDbSymbolTableRecord
100
AcDbLayerTableRecord
  2
legende
 70
     0
 62
     7
  6
Continuous
370
    -3
390
F
347
308
348
0
1001
AcAecLayerStandard
1000

1000

1001
AcCmTransparency
1071
        0
  0
LAYER
  5
27C5
330
2
100
AcDbSymbolTableRecord
100
AcDbLayerTableRecord
  2
Blattrahmen
 70
     0
 62
     7
  6
Continuous
290
     0
370
    -3
390
F
347
308
348
0
1001
AcAecLayerStandard
1000

1000

1001
AcCmTransparency
1071
        0
  0
ENDTAB
  0
TABLE
  2
STYLE
  5
3
330
0
100
AcDbSymbolTable
 70
     4
  0
STYLE
  5
11
330
3
100
AcDbSymbolTableRecord
100
AcDbTextStyleTableRecord
  2
Standard
 70
     0
 40
0.0
 41
1.0
 50
0.0
 71
     0
 42
3.5
  3
arial.ttf
  4

1001
ACAD
1000
Arial
1071
       34
  0
STYLE
  5
25F6
330
3
100
AcDbSymbolTableRecord
100
AcDbTextStyleTableRecord
  2

 70
     1
 40
0.0
 41
1.0
 50
0.0
 71
     0
 42
3.5
  3
ltypeshp.shx
  4

  0
STYLE
  5
27C6
330
3
100
AcDbSymbolTableRecord
100
AcDbTextStyleTableRecord
  2
SLDTEXTSTYLE0
 70
     0
 40
0.0
 41
0.75
 50
0.0
 71
     0
 42
0.2
  3
TXT
  4

  0
STYLE
  5
27C7
330
3
100
AcDbSymbolTableRecord
100
AcDbTextStyleTableRecord
  2
SLDTEXTSTYLE1
 70
     0
 40
0.0
 41
0.605
 50
0.0
 71
     0
 42
0.2
  3
TXT
  4

  0
ENDTAB
  0
TABLE
  2
VIEW
  5
6
330
0
100
AcDbSymbolTable
 70
     0
  0
ENDTAB
  0
TABLE
  2
UCS
  5
7
330
0
100
AcDbSymbolTable
 70
     0
  0
ENDTAB
  0
TABLE
  2
APPID
  5
9
330
0
100
AcDbSymbolTable
 70
    14
  0
APPID
  5
12
330
9
100
AcDbSymbolTableRecord
100
AcDbRegAppTableRecord
  2
ACAD
 70
     0
  0
APPID
  5
2D8
330
9
100
AcDbSymbolTableRecord
100
AcDbRegAppTableRecord
  2
AcAecLayerStandard
 70
     0
  0
APPID
  5
35B
330
9
100
AcDbSymbolTableRecord
100
AcDbRegAppTableRecord
  2
ACAD_NAV_VCDISPLAY
 70
     0
  0
APPID
  5
7B2
330
9
100
AcDbSymbolTableRecord
100
AcDbRegAppTableRecord
  2
ACAD_PSEXT
 70
     0
  0
APPID
  5
7D6
330
9
100
AcDbSymbolTableRecord
100
AcDbRegAppTableRecord
  2
ACAD_DSTYLE_DIMRADIAL_EXTENSION
 70
     0
  0
APPID
  5
897
330
9
100
AcDbSymbolTableRecord
100
AcDbRegAppTableRecord
  2
ACAD_DSTYLE_DIMJAG
 70
     0
  0
APPID
  5
898
330
9
100
AcDbSymbolTableRecord
100
AcDbRegAppTableRecord
  2
ACAD_DSTYLE_DIMTALN
 70
     0
  0
APPID
  5
96B
330
9
100
AcDbSymbolTableRecord
100
AcDbRegAppTableRecord
  2
AcadAnnoMonitorAlertIconDisabled
 70
     0
  0
APPID
  5
96C
330
9
100
AcDbSymbolTableRecord
100
AcDbRegAppTableRecord
  2
ACAD_EXEMPT_FROM_CAD_STANDARDS
 70
     0
  0
APPID
  5
993
330
9
100
AcDbSymbolTableRecord
100
AcDbRegAppTableRecord
  2
AcadAnnoPO
 70
     0
  0
APPID
  5
211F
330
9
100
AcDbSymbolTableRecord
100
AcDbRegAppTableRecord
  2
AcadAnnotative
 70
     0
  0
APPID
  5
2120
330
9
100
AcDbSymbolTableRecord
100
AcDbRegAppTableRecord
  2
AcCmTransparency
 70
     0
  0
APPID
  5
28C5
330
9
100
AcDbSymbolTableRecord
100
AcDbRegAppTableRecord
  2
AcDbDynamicBlockTrueName2
 70
     0
  0
APPID
  5
28C6
330
9
100
AcDbSymbolTableRecord
100
AcDbRegAppTableRecord
  2
AcDbDynamicBlockGUID
 70
     0
  0
ENDTAB
  0
TABLE
  2
DIMSTYLE
  5
A
330
0
100
AcDbSymbolTable
 70
     1
100
AcDbDimStyleTable
 71
     1
340
27
  0
DIMSTYLE
105
27
102
{ACAD_REACTORS
330
26F9
330
2617
330
2682
330
2675
330
268F
330
269C
330
2631
330
2624
330
2706
330
2788
330
2C3D
102
}
330
A
100
AcDbSymbolTableRecord
100
AcDbDimStyleTableRecord
  2
ISO-25
 70
     0
 41
2.5
 42
0.625
 43
3.75
 44
1.25
 73
     0
 74
     0
 77
     1
 78
     8
140
2.5
141
2.5
143
0.0393700787
147
0.5
171
     3
172
     1
271
     2
272
     2
274
     3
278
    44
283
     0
284
     8
340
11
1001
ACAD_DSTYLE_DIMJAG
1070
   388
1040
1.5
1001
ACAD_DSTYLE_DIMTALN
1070
   392
1070
     0
  0
ENDTAB
  0
TABLE
  2
BLOCK_RECORD
  5
1
330
0
100
AcDbSymbolTable
 70
    25
  0
BLOCK_RECORD
  5
1F
102
{ACAD_XDICTIONARY
360
EF1
102
}
330
1
100
AcDbSymbolTableRecord
100
AcDbBlockTableRecord
  2
*Model_Space
340
22
 70
     0
280
     1
281
     0
  0
BLOCK_RECORD
  5
1B
330
1
100
AcDbSymbolTableRecord
100
AcDbBlockTableRecord
  2
*Paper_Space
340
1E
 70
     0
280
     1
281
     0
  0
BLOCK_RECORD
  5
23
330
1
100
AcDbSymbolTableRecord
100
AcDbBlockTableRecord
  2
*Paper_Space0
340
26
 70
     0
280
     1
281
     0
  0
BLOCK_RECORD
  5
23C4
102
{ACAD_REACTORS
330
23DF
102
}
330
1
100
AcDbSymbolTableRecord
100
AcDbBlockTableRecord
  2
*U1
340
0
102
{BLKREFS
331
23E9
331
23EA
331
23EB
331
23EC
331
23ED
331
23EE
331
23EF
331
23F0
331
23F1
331
23F2
331
23F3
331
23F4
331
23F5
331
23F6
331
23F7
331
23F8
102
}
 70
     0
280
     1
281
     0
  0
BLOCK_RECORD
  5
23C7
102
{ACAD_REACTORS
330
23DE
102
}
330
1
100
AcDbSymbolTableRecord
100
AcDbBlockTableRecord
  2
*U2
340
0
102
{BLKREFS
331
23CA
102
}
 70
     0
280
     1
281
     1
  0
BLOCK_RECORD
  5
24D6
102
{ACAD_XDICTIONARY
360
24F0
102
}
330
1
100
AcDbSymbolTableRecord
100
AcDbBlockTableRecord
  2
A$C76B83AF1
340
0
102
{BLKREFS
331
24F4
102
}
 70
     4
280
     1
281
     0
  0
BLOCK_RECORD
  5
2527
102
{ACAD_XDICTIONARY
360
252A
102
}
330
1
100
AcDbSymbolTableRecord
100
AcDbBlockTableRecord
  2
A$C3D1E2265
340
0
102
{BLKREFS
331
252E
331
252F
331
2531
331
2533
102
}
 70
     4
280
     1
281
     0
  0
BLOCK_RECORD
  5
255A
102
{ACAD_REACTORS
330
2568
102
}
330
1
100
AcDbSymbolTableRecord
100
AcDbBlockTableRecord
  2
*U5
340
0
102
{BLKREFS
331
256C
331
256D
331
256E
331
256F
102
}
 70
     0
280
     1
281
     0
  0
BLOCK_RECORD
  5
255D
102
{ACAD_REACTORS
330
2567
102
}
330
1
100
AcDbSymbolTableRecord
100
AcDbBlockTableRecord
  2
*U6
340
0
102
{BLKREFS
331
2560
102
}
 70
     0
280
     1
281
     1
  0
BLOCK_RECORD
  5
257F
102
{ACAD_REACTORS
330
2598
102
}
330
1
100
AcDbSymbolTableRecord
100
AcDbBlockTableRecord
  2
*U7
340
0
102
{BLKREFS
331
2585
331
2586
331
2587
331
2588
102
}
 70
     0
280
     1
281
     0
  0
BLOCK_RECORD
  5
2583
102
{ACAD_REACTORS
330
2597
102
}
330
1
100
AcDbSymbolTableRecord
100
AcDbBlockTableRecord
  2
*U8
340
0
102
{BLKREFS
331
258E
102
}
 70
     0
280
     1
281
     1
  0
BLOCK_RECORD
  5
258A
102
{ACAD_XDICTIONARY
360
258F
102
}
330
1
100
AcDbSymbolTableRecord
100
AcDbBlockTableRecord
  2
A$C09991113
340
0
102
{BLKREFS
331
25A1
102
}
 70
     4
280
     1
281
     0
1001
AcDbDynamicBlockTrueName2
1000
A$C09991113
1001
AcDbDynamicBlockGUID
1000
{F9261611-2588-47C3-B2C4-46B4909626DA}
  0
BLOCK_RECORD
  5
25B9
102
{ACAD_REACTORS
330
25CF
102
}
330
1
100
AcDbSymbolTableRecord
100
AcDbBlockTableRecord
  2
*U10
340
0
102
{BLKREFS
331
25BF
331
25C0
331
25C1
331
25C2
102
}
 70
     0
280
     1
281
     0
  0
BLOCK_RECORD
  5
25BD
102
{ACAD_REACTORS
330
25CE
102
}
330
1
100
AcDbSymbolTableRecord
100
AcDbBlockTableRecord
  2
*U11
340
0
102
{BLKREFS
331
25C5
102
}
 70
     0
280
     1
281
     1
  0
BLOCK_RECORD
  5
25C4
102
{ACAD_XDICTIONARY
360
25C6
102
}
330
1
100
AcDbSymbolTableRecord
100
AcDbBlockTableRecord
  2
A$C7B6C75C7
340
0
102
{BLKREFS
331
25D8
331
25D9
102
}
 70
     4
280
     1
281
     0
1001
AcDbDynamicBlockTrueName2
1000
A$C7B6C75C7
1001
AcDbDynamicBlockGUID
1000
{5CFC43AB-66A5-493A-8E43-3FE1DE3618F1}
  0
BLOCK_RECORD
  5
2609
102
{ACAD_XDICTIONARY
360
260C
102
}
330
1
100
AcDbSymbolTableRecord
100
AcDbBlockTableRecord
  2
A$C65873F99
340
0
102
{BLKREFS
331
2610
331
2611
331
2612
331
2613
331
2614
331
2615
102
}
 70
     4
280
     1
281
     0
  0
BLOCK_RECORD
  5
2618
330
1
100
AcDbSymbolTableRecord
100
AcDbBlockTableRecord
  2
*D14
340
0
 70
     0
280
     1
281
     0
  0
BLOCK_RECORD
  5
2625
330
1
100
AcDbSymbolTableRecord
100
AcDbBlockTableRecord
  2
*D15
340
0
 70
     0
280
     1
281
     0
  0
BLOCK_RECORD
  5
2632
330
1
100
AcDbSymbolTableRecord
100
AcDbBlockTableRecord
  2
*D16
340
0
 70
     0
280
     1
281
     0
  0
BLOCK_RECORD
  5
2676
330
1
100
AcDbSymbolTableRecord
100
AcDbBlockTableRecord
  2
*D17
340
0
 70
     0
280
     1
281
     0
  0
BLOCK_RECORD
  5
2683
330
1
100
AcDbSymbolTableRecord
100
AcDbBlockTableRecord
  2
*D18
340
0
 70
     0
280
     1
281
     0
  0
BLOCK_RECORD
  5
2690
330
1
100
AcDbSymbolTableRecord
100
AcDbBlockTableRecord
  2
*D19
340
0
 70
     0
280
     1
281
     0
  0
BLOCK_RECORD
  5
269D
330
1
100
AcDbSymbolTableRecord
100
AcDbBlockTableRecord
  2
*D20
340
0
 70
     0
280
     1
281
     0
  0
BLOCK_RECORD
  5
26FA
330
1
100
AcDbSymbolTableRecord
100
AcDbBlockTableRecord
  2
*D21
340
0
 70
     0
280
     1
281
     0
  0
BLOCK_RECORD
  5
2707
330
1
100
AcDbSymbolTableRecord
100
AcDbBlockTableRecord
  2
*D22
340
0
 70
     0
280
     1
281
     0
  0
BLOCK_RECORD
  5
2789
330
1
100
AcDbSymbolTableRecord
100
AcDbBlockTableRecord
  2
*D23
340
0
 70
     0
280
     1
281
     0
  0
BLOCK_RECORD
  5
2C3E
330
1
100
AcDbSymbolTableRecord
100
AcDbBlockTableRecord
  2
*D24
340
0
 70
     0
280
     1
281
     0
  0
ENDTAB
  0
ENDSEC
  0
SECTION
  2
BLOCKS
  0
BLOCK
  5
20
330
1F
100
AcDbEntity
  8
0
100
AcDbBlockBegin
  2
*Model_Space
 70
     0
 10
0.0
 20
0.0
 30
0.0
  3
*Model_Space
  1

  0
ENDBLK
  5
21
330
1F
100
AcDbEntity
  8
0
100
AcDbBlockEnd
  0
BLOCK
  5
1C
330
1B
100
AcDbEntity
 67
     1
  8
0
100
AcDbBlockBegin
  2
*Paper_Space
 70
     0
 10
0.0
 20
0.0
 30
0.0
  3
*Paper_Space
  1

  0
ENDBLK
  5
1D
330
1B
100
AcDbEntity
 67
     1
  8
0
100
AcDbBlockEnd
  0
BLOCK
  5
24
330
23
100
AcDbEntity
 67
     1
  8
0
100
AcDbBlockBegin
  2
*Paper_Space0
 70
     0
 10
0.0
 20
0.0
 30
0.0
  3
*Paper_Space0
  1

  0
ENDBLK
  5
25
330
23
100
AcDbEntity
 67
     1
  8
0
100
AcDbBlockEnd
  0
BLOCK
  5
23C5
330
23C4
100
AcDbEntity
  8
0
100
AcDbBlockBegin
  2
*U1
 70
     1
 10
0.0
 20
0.0
 30
0.0
  3
*U1
  1

  0
ARC
  5
23CB
330
23C4
100
AcDbEntity
  8
Kachel
  6
Continuous
 62
     7
370
    35
100
AcDbCircle
 10
-1.850000129449995
 20
-1.60000012665003
 30
0.0
 40
0.2000000000000171
100
AcDbArc
 50
180.0
 51
270.0
  0
LINE
  5
23CC
330
23C4
100
AcDbEntity
  8
Kachel
  6
Continuous
 62
     7
370
    35
100
AcDbLine
 10
-1.85000151394999
 20
-1.80000008555001
 30
0.0
 11
1.85000151394999
 21
-1.80000008555001
 31
0.0
  0
ARC
  5
23CD
330
23C4
100
AcDbEntity
  8
Kachel
  6
Continuous
 62
     7
370
    35
100
AcDbCircle
 10
1.849999870550021
 20
-1.60000012665003
 30
0.0
 40
0.2000000000000171
100
AcDbArc
 50
270.0
 51
0.0
  0
ARC
  5
23CE
330
23C4
100
AcDbEntity
  8
Kachel
  6
Continuous
 62
     7
370
    35
100
AcDbCircle
 10
1.849999870550021
 20
1.599999873350014
 30
0.0
 40
0.2000000000000171
100
AcDbArc
 50
0.0
 51
90.0
  0
ARC
  5
23CF
330
23C4
100
AcDbEntity
  8
Kachel
  6
Continuous
 62
     7
370
    35
100
AcDbCircle
 10
-1.850000129449995
 20
1.599999873350014
 30
0.0
 40
0.2000000000000171
100
AcDbArc
 50
90.0
 51
180.0
  0
LINE
  5
23D0
330
23C4
100
AcDbEntity
  8
Kachel
  6
Continuous
 62
     7
370
    35
100
AcDbLine
 10
-2.049997448949994
 20
1.599999726749985
 30
0.0
 11
-2.049997448949994
 21
-1.600000192450039
 31
0.0
  0
LINE
  5
23D1
330
23C4
100
AcDbEntity
  8
Kachel
  6
Continuous
 62
     7
370
    35
100
AcDbLine
 10
2.049997448949994
 20
-1.600000192450039
 30
0.0
 11
2.049997448949994
 21
1.599999726749985
 31
0.0
  0
LINE
  5
23D2
330
23C4
100
AcDbEntity
  8
Kachel
  6
Continuous
 62
     7
370
    35
100
AcDbLine
 10
1.85000151394999
 20
1.79999985264996
 30
0.0
 11
-1.85000151394999
 21
1.79999985264996
 31
0.0
  0
LINE
  5
23D3
330
23C4
100
AcDbEntity
  8
Kachel
  6
Continuous
 62
     7
370
    35
100
AcDbLine
 10
-2.750001847749985
 20
-1.700000022550028
 30
0.0
 11
-1.85000151394999
 21
-2.500000060549979
 31
0.0
  0
LWPOLYLINE
  5
23D4
330
23C4
100
AcDbEntity
  8
Kachel
  6
Continuous
 62
     7
370
    35
100
AcDbPolyline
 90
        6
 70
     1
 43
0.0
 10
-2.750001847749985
 20
2.500000060549979
 10
-2.750001847749985
 20
-1.700000022550028
 10
-2.750001847749985
 20
-2.500000060549979
 10
-1.85000151394999
 20
-2.500000060549979
 10
2.750001847749985
 20
-2.500000060549979
 10
2.750001847749985
 20
2.500000060549979
  0
ENDBLK
  5
23C6
330
23C4
100
AcDbEntity
  8
0
100
AcDbBlockEnd
  0
BLOCK
  5
23C8
330
23C7
100
AcDbEntity
  8
0
100
AcDbBlockBegin
  2
*U2
 70
     1
 10
0.0
 20
0.0
 30
0.0
  3
*U2
  1

  0
INSERT
  5
23E9
330
23C7
100
AcDbEntity
  8
Kachel
  6
ByBlock
347
300
 62
     0
440
 16777216
370
    -2
380
     1
100
AcDbBlockReference
  2
*U1
 10
0.0
 20
0.0
 30
0.0
  0
INSERT
  5
23EA
330
23C7
100
AcDbEntity
  8
Kachel
  6
ByBlock
347
300
 62
     0
440
 16777216
370
    -2
380
     1
100
AcDbBlockReference
  2
*U1
 10
0.0000000000000031
 20
50.0
 30
0.0
  0
INSERT
  5
23EB
330
23C7
100
AcDbEntity
  8
Kachel
  6
ByBlock
347
300
 62
     0
440
 16777216
370
    -2
380
     1
100
AcDbBlockReference
  2
*U1
 10
0.0000000000000061
 20
100.0
 30
0.0
  0
INSERT
  5
23EC
330
23C7
100
AcDbEntity
  8
Kachel
  6
ByBlock
347
300
 62
     0
440
 16777216
370
    -2
380
     1
100
AcDbBlockReference
  2
*U1
 10
0.0000000000000092
 20
150.0
 30
0.0
  0
INSERT
  5
23ED
330
23C7
100
AcDbEntity
  8
Kachel
  6
ByBlock
347
300
 62
     0
440
 16777216
370
    -2
380
     1
100
AcDbBlockReference
  2
*U1
 10
50.0
 20
0.0
 30
0.0
  0
INSERT
  5
23EE
330
23C7
100
AcDbEntity
  8
Kachel
  6
ByBlock
347
300
 62
     0
440
 16777216
370
    -2
380
     1
100
AcDbBlockReference
  2
*U1
 10
50.0
 20
50.0
 30
0.0
  0
INSERT
  5
23EF
330
23C7
100
AcDbEntity
  8
Kachel
  6
ByBlock
347
300
 62
     0
440
 16777216
370
    -2
380
     1
100
AcDbBlockReference
  2
*U1
 10
50.0
 20
100.0
 30
0.0
  0
INSERT
  5
23F0
330
23C7
100
AcDbEntity
  8
Kachel
  6
ByBlock
347
300
 62
     0
440
 16777216
370
    -2
380
     1
100
AcDbBlockReference
  2
*U1
 10
50.0
 20
150.0
 30
0.0
  0
INSERT
  5
23F1
330
23C7
100
AcDbEntity
  8
Kachel
  6
ByBlock
347
300
 62
     0
440
 16777216
370
    -2
380
     1
100
AcDbBlockReference
  2
*U1
 10
100.0
 20
0.0
 30
0.0
  0
INSERT
  5
23F2
330
23C7
100
AcDbEntity
  8
Kachel
  6
ByBlock
347
300
 62
     0
440
 16777216
370
    -2
380
     1
100
AcDbBlockReference
  2
*U1
 10
100.0
 20
50.0
 30
0.0
  0
INSERT
  5
23F3
330
23C7
100
AcDbEntity
  8
Kachel
  6
ByBlock
347
300
 62
     0
440
 16777216
370
    -2
380
     1
100
AcDbBlockReference
  2
*U1
 10
100.0
 20
100.0
 30
0.0
  0
INSERT
  5
23F4
330
23C7
100
AcDbEntity
  8
Kachel
  6
ByBlock
347
300
 62
     0
440
 16777216
370
    -2
380
     1
100
AcDbBlockReference
  2
*U1
 10
100.0
 20
150.0
 30
0.0
  0
INSERT
  5
23F5
330
23C7
100
AcDbEntity
  8
Kachel
  6
ByBlock
347
300
 62
     0
440
 16777216
370
    -2
380
     1
100
AcDbBlockReference
  2
*U1
 10
150.0
 20
0.0
 30
0.0
  0
INSERT
  5
23F6
330
23C7
100
AcDbEntity
  8
Kachel
  6
ByBlock
347
300
 62
     0
440
 16777216
370
    -2
380
     1
100
AcDbBlockReference
  2
*U1
 10
150.0
 20
50.0
 30
0.0
  0
INSERT
  5
23F7
330
23C7
100
AcDbEntity
  8
Kachel
  6
ByBlock
347
300
 62
     0
440
 16777216
370
    -2
380
     1
100
AcDbBlockReference
  2
*U1
 10
150.0
 20
100.0
 30
0.0
  0
INSERT
  5
23F8
330
23C7
100
AcDbEntity
  8
Kachel
  6
ByBlock
347
300
 62
     0
440
 16777216
370
    -2
380
     1
100
AcDbBlockReference
  2
*U1
 10
150.0
 20
150.0
 30
0.0
  0
ENDBLK
  5
23C9
330
23C7
100
AcDbEntity
  8
0
100
AcDbBlockEnd
  0
BLOCK
  5
24F2
330
24D6
100
AcDbEntity
  8
0
100
AcDbBlockBegin
  2
A$C76B83AF1
 70
     0
 10
0.0
 20
0.0
 30
0.0
  3
A$C76B83AF1
  1

  0
LINE
  5
24D7
330
24D6
100
AcDbEntity
  8
Kachel
  6
Continuous
 62
     7
370
    30
100
AcDbLine
 10
-2.699998288899905
 20
-4.589999083500003
 30
0.0
 11
-2.699998288899905
 21
1.159999530700019
 31
0.0
  0
LINE
  5
24D8
330
24D6
100
AcDbEntity
  8
Kachel
  6
Continuous
 62
     7
370
    30
100
AcDbLine
 10
-2.699998288899905
 20
-4.589999083500003
 30
0.0
 11
-5.849999457200055
 21
-4.589999083500003
 31
0.0
  0
LINE
  5
24D9
330
24D6
100
AcDbEntity
  8
Kachel
  6
Continuous
 62
     7
370
    30
100
AcDbLine
 10
-5.849999457200055
 20
-4.589999083500003
 30
0.0
 11
-5.849999457200055
 21
1.159999530700019
 31
0.0
  0
LINE
  5
24DA
330
24D6
100
AcDbEntity
  8
Kachel
  6
Continuous
 62
     7
370
    30
100
AcDbLine
 10
5.300003022400005
 20
-0.8400007971999912
 30
0.0
 11
5.300003022400005
 21
-1.490000624300023
 31
0.0
  0
LINE
  5
24DB
330
24D6
100
AcDbEntity
  8
Kachel
  6
Continuous
 62
     7
370
    30
100
AcDbLine
 10
5.300003022400005
 20
-1.490000624300023
 30
0.0
 11
-2.699998288899905
 21
-1.490000624300023
 31
0.0
  0
LINE
  5
24DC
330
24D6
100
AcDbEntity
  8
Kachel
  6
Continuous
 62
   144
370
    30
100
AcDbLine
 10
5.300003022400005
 20
-0.8400007971999912
 30
0.0
 11
-2.699998288899905
 21
-0.8400007971999912
 31
0.0
  0
LINE
  5
24DD
330
24D6
100
AcDbEntity
  8
Kachel
  6
Continuous
 62
     7
370
    30
100
AcDbLine
 10
-7.180002599599902
 20
-0.9899996110000301
 30
0.0
 11
-7.180002599599902
 21
1.159999530700019
 31
0.0
  0
LINE
  5
24DE
330
24D6
100
AcDbEntity
  8
Kachel
  6
Continuous
 62
     7
370
    30
100
AcDbLine
 10
-7.180002599599902
 20
2.759999606700034
 30
0.0
 11
-7.180002599599902
 21
3.159999858499986
 31
0.0
  0
LINE
  5
24DF
330
24D6
100
AcDbEntity
  8
Kachel
  6
Continuous
 62
     7
370
    30
100
AcDbLine
 10
-6.680001586300022
 20
-1.490000624300023
 30
0.0
 11
-5.849999457200055
 21
-1.490000624300023
 31
0.0
  0
ARC
  5
24E0
330
24D6
100
AcDbEntity
  8
Kachel
  6
Continuous
 62
     7
370
    30
100
AcDbCircle
 10
-6.680000000000063
 20
-0.990000000000009
 30
0.0
 40
0.5
100
AcDbArc
 50
180.0
 51
270.0
  0
LINE
  5
24E1
330
24D6
100
AcDbEntity
  8
Kachel
  6
Continuous
 62
   144
370
    30
100
AcDbLine
 10
-6.029998033799984
 20
-0.8400007971999912
 30
0.0
 11
-5.849999457200055
 21
-0.8400007971999912
 31
0.0
  0
ARC
  5
24E2
330
24D6
100
AcDbEntity
  8
Kachel
  6
Continuous
 62
   144
370
    30
100
AcDbCircle
 10
-6.029999999999972
 20
-0.3400000000000318
 30
0.0
 40
0.5
100
AcDbArc
 50
180.0
 51
270.0
  0
LINE
  5
24E3
330
24D6
100
AcDbEntity
  8
Kachel
  6
Continuous
 62
   144
370
    30
100
AcDbLine
 10
-6.529999047099863
 20
3.159999858499986
 30
0.0
 11
-6.529999047099863
 21
2.759999606700034
 31
0.0
  0
LINE
  5
24E4
330
24D6
100
AcDbEntity
  8
Kachel
  6
Continuous
 62
   144
370
    30
100
AcDbLine
 10
-6.529999047099863
 20
1.159999530700019
 30
0.0
 11
-6.529999047099863
 21
-0.339999783899998
 31
0.0
  0
LINE
  5
24E5
330
24D6
100
AcDbEntity
  8
Kachel
  6
Continuous
 62
   144
370
    30
100
AcDbLine
 10
-7.180002599599902
 20
3.159999858499986
 30
0.0
 11
-6.529999047099863
 21
3.159999858499986
 31
0.0
  0
LINE
  5
24E6
330
24D6
100
AcDbEntity
  8
Kachel
  6
Continuous
 62
     7
370
    30
100
AcDbLine
 10
-0.2000006731000212
 20
0.2999995014999968
 30
0.0
 11
-2.699998288899905
 21
0.2999995014999968
 31
0.0
  0
LINE
  5
24E7
330
24D6
100
AcDbEntity
  8
Kachel
  6
Continuous
 62
     7
370
    30
100
AcDbLine
 10
4.800002009100126
 20
0.2999995014999968
 30
0.0
 11
4.800002009100126
 21
1.159999530700019
 31
0.0
  0
LINE
  5
24E8
330
24D6
100
AcDbEntity
  8
Kachel
  6
Continuous
 62
     7
370
    30
100
AcDbLine
 10
4.800002009100126
 20
0.2999995014999968
 30
0.0
 11
1.800003380000134
 21
0.2999995014999968
 31
0.0
  0
ARC
  5
24E9
330
24D6
100
AcDbEntity
  8
Kachel
  6
Continuous
 62
     7
370
    30
100
AcDbCircle
 10
1.600000000000136
 20
0.1999999999999886
 30
0.0
 40
0.2000000000000455
100
AcDbArc
 50
270.0
 51
0.0
  0
LINE
  5
24EA
330
24D6
100
AcDbEntity
  8
Kachel
  6
Continuous
 62
     7
370
    30
100
AcDbLine
 10
1.59999999440015
 20
0.0000000110999849
 30
0.0
 11
0.0000027124001463
 21
0.0000000110999849
 31
0.0
  0
ARC
  5
24EB
330
24D6
100
AcDbEntity
  8
Kachel
  6
Continuous
 62
     7
370
    30
100
AcDbCircle
 10
0.0
 20
0.1999999999999886
 30
0.0
 40
0.1999999999999886
100
AcDbArc
 50
180.0
 51
270.0
  0
LINE
  5
24EC
330
24D6
100
AcDbEntity
  8
Kachel
  6
Continuous
 62
   144
370
    30
100
AcDbLine
 10
-0.2000006731000212
 20
0.19999967130002
 30
0.0
 11
-0.2000006731000212
 21
0.2999995014999968
 31
0.0
  0
LINE
  5
24ED
330
24D6
100
AcDbEntity
  8
Kachel
  6
Continuous
 62
   144
370
    30
100
AcDbLine
 10
1.800003380000134
 20
0.19999967130002
 30
0.0
 11
1.800003380000134
 21
0.2999995014999968
 31
0.0
  0
LINE
  5
24EE
330
24D6
100
AcDbEntity
  8
Kachel
  6
Continuous
 62
     7
370
    30
100
AcDbLine
 10
5.799996585099961
 20
1.159999530700019
 30
0.0
 11
5.799996585099961
 21
0.2999995014999968
 31
0.0
  0
LINE
  5
24EF
330
24D6
100
AcDbEntity
  8
Kachel
  6
Continuous
 62
     7
370
    30
100
AcDbLine
 10
5.799996585099961
 20
0.2999995014999968
 30
0.0
 11
4.800002009100126
 21
0.2999995014999968
 31
0.0
  0
ENDBLK
  5
24F3
330
24D6
100
AcDbEntity
  8
0
100
AcDbBlockEnd
  0
BLOCK
  5
252C
330
2527
100
AcDbEntity
  8
0
100
AcDbBlockBegin
  2
A$C3D1E2265
 70
     0
 10
0.0
 20
0.0
 30
0.0
  3
A$C3D1E2265
  1

  0
LWPOLYLINE
  5
2528
330
2527
100
AcDbEntity
  8
0
100
AcDbPolyline
 90
        4
 70
     0
 43
0.0
 10
0.0
 20
5.0
 10
-1.5
 20
5.0
 10
-1.5
 20
0.0
 10
0.0
 20
0.0
  0
LWPOLYLINE
  5
2529
330
2527
100
AcDbEntity
  8
0
100
AcDbPolyline
 90
        4
 70
     1
 43
0.0
 10
-1.5
 20
0.0
 10
-1.300000000000011
 20
0.0
 10
-1.300000000000011
 20
0.9000000000000056
 10
-1.5
 20
0.9000000000000056
  0
ENDBLK
  5
252D
330
2527
100
AcDbEntity
  8
0
100
AcDbBlockEnd
  0
BLOCK
  5
255B
330
255A
100
AcDbEntity
  8
0
100
AcDbBlockBegin
  2
*U5
 70
     1
 10
0.0
 20
0.0
 30
0.0
  3
*U5
  1

  0
LWPOLYLINE
  5
2561
330
255A
100
AcDbEntity
  8
0
100
AcDbPolyline
 90
        4
 70
     1
 43
0.0
 10
-0.3249999999999886
 20
-0.3250000000000028
 10
0.3249999999999886
 20
-0.3250000000000028
 10
0.3249999999999886
 20
0.3250000000000028
 10
-0.3249999999999886
 20
0.3250000000000028
  0
ENDBLK
  5
255C
330
255A
100
AcDbEntity
  8
0
100
AcDbBlockEnd
  0
BLOCK
  5
255E
330
255D
100
AcDbEntity
  8
0
100
AcDbBlockBegin
  2
*U6
 70
     1
 10
0.0
 20
0.0
 30
0.0
  3
*U6
  1

  0
INSERT
  5
256C
330
255D
100
AcDbEntity
  8
0
  6
ByBlock
347
300
 62
     0
440
 16777216
370
    -2
380
     1
100
AcDbBlockReference
  2
*U5
 10
0.0
 20
0.0
 30
0.0
  0
INSERT
  5
256D
330
255D
100
AcDbEntity
  8
0
  6
ByBlock
347
300
 62
     0
440
 16777216
370
    -2
380
     1
100
AcDbBlockReference
  2
*U5
 10
2.54
 20
0.0
 30
0.0
  0
INSERT
  5
256E
330
255D
100
AcDbEntity
  8
0
  6
ByBlock
347
300
 62
     0
440
 16777216
370
    -2
380
     1
100
AcDbBlockReference
  2
*U5
 10
5.08
 20
0.0
 30
0.0
  0
INSERT
  5
256F
330
255D
100
AcDbEntity
  8
0
  6
ByBlock
347
300
 62
     0
440
 16777216
370
    -2
380
     1
100
AcDbBlockReference
  2
*U5
 10
7.62
 20
0.0
 30
0.0
  0
ENDBLK
  5
255F
330
255D
100
AcDbEntity
  8
0
100
AcDbBlockEnd
  0
BLOCK
  5
2580
330
257F
100
AcDbEntity
  8
0
100
AcDbBlockBegin
  2
*U7
 70
     1
 10
0.0
 20
0.0
 30
0.0
  3
*U7
  1

  0
LWPOLYLINE
  5
2581
330
257F
100
AcDbEntity
  8
0
100
AcDbPolyline
 90
        4
 70
     1
 43
0.0
 10
-0.3249999999999886
 20
-0.3250000000000028
 10
0.3249999999999886
 20
-0.3250000000000028
 10
0.3249999999999886
 20
0.3250000000000028
 10
-0.3249999999999886
 20
0.3250000000000028
  0
ENDBLK
  5
2582
330
257F
100
AcDbEntity
  8
0
100
AcDbBlockEnd
  0
BLOCK
  5
2584
330
2583
100
AcDbEntity
  8
0
100
AcDbBlockBegin
  2
*U8
 70
     1
 10
0.0
 20
0.0
 30
0.0
  3
*U8
  1

  0
INSERT
  5
2585
330
2583
100
AcDbEntity
  8
0
  6
ByBlock
347
300
 62
     0
440
 16777216
370
    -2
380
     1
100
AcDbBlockReference
  2
*U7
 10
0.0
 20
0.0
 30
0.0
  0
INSERT
  5
2586
330
2583
100
AcDbEntity
  8
0
  6
ByBlock
347
300
 62
     0
440
 16777216
370
    -2
380
     1
100
AcDbBlockReference
  2
*U7
 10
2.54
 20
0.0
 30
0.0
  0
INSERT
  5
2587
330
2583
100
AcDbEntity
  8
0
  6
ByBlock
347
300
 62
     0
440
 16777216
370
    -2
380
     1
100
AcDbBlockReference
  2
*U7
 10
5.08
 20
0.0
 30
0.0
  0
INSERT
  5
2588
330
2583
100
AcDbEntity
  8
0
  6
ByBlock
347
300
 62
     0
440
 16777216
370
    -2
380
     1
100
AcDbBlockReference
  2
*U7
 10
7.62
 20
0.0
 30
0.0
  0
ENDBLK
  5
2589
330
2583
100
AcDbEntity
  8
0
100
AcDbBlockEnd
  0
BLOCK
  5
2591
330
258A
100
AcDbEntity
  8
0
100
AcDbBlockBegin
  2
A$C09991113
 70
     0
 10
0.0
 20
0.0
 30
0.0
  3
A$C09991113
  1

  0
LWPOLYLINE
  5
258B
330
258A
100
AcDbEntity
  8
0
100
AcDbPolyline
 90
        4
 70
     1
 43
0.0
 10
6.0
 20
0.0
 10
6.0
 20
10.0
 10
0.0
 20
10.0
 10
0.0
 20
0.0
  0
LINE
  5
258C
330
258A
100
AcDbEntity
  8
0
100
AcDbLine
 10
1.410000905400011
 20
0.0
 30
0.0
 11
1.410000905400011
 21
10.0
 31
0.0
  0
LINE
  5
258D
330
258A
100
AcDbEntity
  8
0
100
AcDbLine
 10
1.110001414999942
 20
0.0
 30
0.0
 11
1.110001414999942
 21
10.0
 31
0.0
  0
INSERT
  5
258E
102
{ACAD_REACTORS
330
2599
102
}
330
258A
100
AcDbEntity
  8
0
100
AcDbBlockReference
  2
*U8
 10
2.575001540799974
 20
1.189999999999997
 30
0.0
 50
90.0
  0
ENDBLK
  5
2592
330
258A
100
AcDbEntity
  8
0
100
AcDbBlockEnd
  0
BLOCK
  5
25BA
330
25B9
100
AcDbEntity
  8
0
100
AcDbBlockBegin
  2
*U10
 70
     1
 10
0.0
 20
0.0
 30
0.0
  3
*U10
  1

  0
LWPOLYLINE
  5
25BB
330
25B9
100
AcDbEntity
  8
0
100
AcDbPolyline
 90
        4
 70
     1
 43
0.0
 10
-0.3249999999999886
 20
-0.3250000000000028
 10
0.3249999999999886
 20
-0.3250000000000028
 10
0.3249999999999886
 20
0.3250000000000028
 10
-0.3249999999999886
 20
0.3250000000000028
  0
ENDBLK
  5
25BC
330
25B9
100
AcDbEntity
  8
0
100
AcDbBlockEnd
  0
BLOCK
  5
25BE
330
25BD
100
AcDbEntity
  8
0
100
AcDbBlockBegin
  2
*U11
 70
     1
 10
0.0
 20
0.0
 30
0.0
  3
*U11
  1

  0
INSERT
  5
25BF
330
25BD
100
AcDbEntity
  8
0
  6
ByBlock
347
300
 62
     0
440
 16777216
370
    -2
380
     1
100
AcDbBlockReference
  2
*U10
 10
0.0
 20
0.0
 30
0.0
  0
INSERT
  5
25C0
330
25BD
100
AcDbEntity
  8
0
  6
ByBlock
347
300
 62
     0
440
 16777216
370
    -2
380
     1
100
AcDbBlockReference
  2
*U10
 10
2.54
 20
0.0
 30
0.0
  0
INSERT
  5
25C1
330
25BD
100
AcDbEntity
  8
0
  6
ByBlock
347
300
 62
     0
440
 16777216
370
    -2
380
     1
100
AcDbBlockReference
  2
*U10
 10
5.08
 20
0.0
 30
0.0
  0
INSERT
  5
25C2
330
25BD
100
AcDbEntity
  8
0
  6
ByBlock
347
300
 62
     0
440
 16777216
370
    -2
380
     1
100
AcDbBlockReference
  2
*U10
 10
7.62
 20
0.0
 30
0.0
  0
ENDBLK
  5
25C3
330
25BD
100
AcDbEntity
  8
0
100
AcDbBlockEnd
  0
BLOCK
  5
25C8
330
25C4
100
AcDbEntity
  8
0
100
AcDbBlockBegin
  2
A$C7B6C75C7
 70
     0
 10
0.0
 20
0.0
 30
0.0
  3
A$C7B6C75C7
  1

  0
INSERT
  5
25C5
102
{ACAD_REACTORS
330
25D0
102
}
330
25C4
100
AcDbEntity
  8
0
100
AcDbBlockReference
  2
*U11
 10
0.3249999999999886
 20
0.3250000000000028
 30
0.0
 50
90.0
  0
ENDBLK
  5
25C9
330
25C4
100
AcDbEntity
  8
0
100
AcDbBlockEnd
  0
BLOCK
  5
260E
330
2609
100
AcDbEntity
  8
0
100
AcDbBlockBegin
  2
A$C65873F99
 70
     0
 10
0.0
 20
0.0
 30
0.0
  3
A$C65873F99
  1

  0
LINE
  5
260A
330
2609
100
AcDbEntity
  8
Mittellinie
100
AcDbLine
 10
-3.099998339999984
 20
0.0
 30
0.0
 11
3.099998339999984
 21
0.0
 31
0.0
  0
LINE
  5
260B
330
2609
100
AcDbEntity
  8
Mittellinie
100
AcDbLine
 10
0.0
 20
3.099998339999984
 30
0.0
 11
0.0
 21
-3.099998339999984
 31
0.0
  0
ENDBLK
  5
260F
330
2609
100
AcDbEntity
  8
0
100
AcDbBlockEnd
  0
BLOCK
  5
2619
330
2618
100
AcDbEntity
  8
0
100
AcDbBlockBegin
  2
*D14
 70
     1
 10
0.0
 20
0.0
 30
0.0
  3
*D14
  1

  0
LINE
  5
2C11
330
2618
100
AcDbEntity
  8
Maße
 62
     0
440
 16777216
370
    -2
100
AcDbLine
 10
61.21818877942827
 20
155.4969148864845
 30
0.0
 11
61.21818877942827
 21
194.9644413029327
 31
0.0
  0
LINE
  5
2C12
330
2618
100
AcDbEntity
  8
Maße
 62
     0
440
 16777216
370
    -2
100
AcDbLine
 10
161.2181868994283
 20
155.4969148864845
 30
0.0
 11
161.2181868994283
 21
194.9644413029327
 31
0.0
  0
LINE
  5
2C13
330
2618
100
AcDbEntity
  8
Maße
 62
     0
440
 16777216
370
    -2
100
AcDbLine
 10
63.71818877942827
 20
193.9644413029327
 30
0.0
 11
158.7181868994282
 21
193.9644413029327
 31
0.0
  0
SOLID
  5
2C14
330
2618
100
AcDbEntity
  8
Maße
 62
     0
440
 16777216
100
AcDbTrace
 10
63.71818877942827
 20
194.3811079695994
 30
0.0
 11
63.71818877942827
 21
193.5477746362661
 31
0.0
 12
61.21818877942827
 22
193.9644413029327
 32
0.0
 13
61.21818877942827
 23
193.9644413029327
 33
0.0
  0
SOLID
  5
2C15
330
2618
100
AcDbEntity
  8
Maße
 62
     0
440
 16777216
100
AcDbTrace
 10
158.7181868994282
 20
194.3811079695994
 30
0.0
 11
158.7181868994282
 21
193.5477746362661
 31
0.0
 12
161.2181868994283
 22
193.9644413029327
 32
0.0
 13
161.2181868994283
 23
193.9644413029327
 33
0.0
  0
MTEXT
  5
2C16
330
2618
100
AcDbEntity
  8
Maße
 62
     0
440
 16777216
100
AcDbMText
 10
111.2181878394283
 20
196.2514467599586
 30
0.0
 40
2.0
 41
0.0
 46
0.0
 71
     5
 72
     1
  1
{\H1.75x;100}
 73
     1
 44
1.0
  0
POINT
  5
2C17
330
2618
100
AcDbEntity
  8
Defpoints
 62
     0
440
 16777216
100
AcDbPoint
 10
61.21818877942827
 20
154.4969148864845
 30
0.0
  0
POINT
  5
2C18
330
2618
100
AcDbEntity
  8
Defpoints
 62
     0
440
 16777216
100
AcDbPoint
 10
161.2181868994283
 20
154.4969148864845
 30
0.0
  0
POINT
  5
2C19
330
2618
100
AcDbEntity
  8
Defpoints
 62
     0
440
 16777216
100
AcDbPoint
 10
161.2181868994283
 20
193.9644413029327
 30
0.0
  0
ENDBLK
  5
261A
330
2618
100
AcDbEntity
  8
0
100
AcDbBlockEnd
  0
BLOCK
  5
2626
330
2625
100
AcDbEntity
  8
0
100
AcDbBlockBegin
  2
*D15
 70
     1
 10
0.0
 20
0.0
 30
0.0
  3
*D15
  1

  0
LINE
  5
2B8B
330
2625
100
AcDbEntity
  8
Maße
 62
     0
440
 16777216
370
    -2
100
AcDbLine
 10
81.31701573942825
 20
57.50691382648451
 30
0.0
 11
81.31701573942825
 21
13.05438906142876
 31
0.0
  0
LINE
  5
2B8C
330
2625
100
AcDbEntity
  8
Maße
 62
     0
440
 16777216
370
    -2
100
AcDbLine
 10
141.3245462194282
 20
57.50691382648451
 30
0.0
 11
141.3245462194282
 21
13.05438906142876
 31
0.0
  0
LINE
  5
2B8D
330
2625
100
AcDbEntity
  8
Maße
 62
     0
440
 16777216
370
    -2
100
AcDbLine
 10
83.81701573942825
 20
14.05438906142876
 30
0.0
 11
138.8245462194283
 21
14.05438906142876
 31
0.0
  0
SOLID
  5
2B8E
330
2625
100
AcDbEntity
  8
Maße
 62
     0
440
 16777216
100
AcDbTrace
 10
83.81701573942825
 20
14.47105572809543
 30
0.0
 11
83.81701573942825
 21
13.6377223947621
 31
0.0
 12
81.31701573942825
 22
14.05438906142876
 32
0.0
 13
81.31701573942825
 23
14.05438906142876
 33
0.0
  0
SOLID
  5
2B8F
330
2625
100
AcDbEntity
  8
Maße
 62
     0
440
 16777216
100
AcDbTrace
 10
138.8245462194283
 20
14.47105572809543
 30
0.0
 11
138.8245462194283
 21
13.6377223947621
 31
0.0
 12
141.3245462194282
 22
14.05438906142876
 32
0.0
 13
141.3245462194282
 23
14.05438906142876
 33
0.0
  0
MTEXT
  5
2B90
330
2625
100
AcDbEntity
  8
Maße
 62
     0
440
 16777216
100
AcDbMText
 10
111.3207809794282
 20
16.34139451845468
 30
0.0
 40
2.0
 41
0.0
 46
0.0
 71
     5
 72
     1
  1
{\H1.75x;60}
 73
     1
 44
1.0
  0
POINT
  5
2B91
330
2625
100
AcDbEntity
  8
Defpoints
 62
     0
440
 16777216
100
AcDbPoint
 10
81.31701573942825
 20
58.50691382648451
 30
0.0
  0
POINT
  5
2B92
330
2625
100
AcDbEntity
  8
Defpoints
 62
     0
440
 16777216
100
AcDbPoint
 10
141.3245462194282
 20
58.50691382648451
 30
0.0
  0
POINT
  5
2B93
330
2625
100
AcDbEntity
  8
Defpoints
 62
     0
440
 16777216
100
AcDbPoint
 10
141.3245462194282
 20
14.05438906142876
 30
0.0
  0
ENDBLK
  5
2627
330
2625
100
AcDbEntity
  8
0
100
AcDbBlockEnd
  0
BLOCK
  5
2633
330
2632
100
AcDbEntity
  8
0
100
AcDbBlockBegin
  2
*D16
 70
     1
 10
0.0
 20
0.0
 30
0.0
  3
*D16
  1

  0
LINE
  5
2B94
330
2632
100
AcDbEntity
  8
Maße
 62
     0
440
 16777216
370
    -2
100
AcDbLine
 10
61.21818877942827
 20
53.49691676648451
 30
0.0
 11
61.21818877942827
 21
6.054389061428764
 31
0.0
  0
LINE
  5
2B95
330
2632
100
AcDbEntity
  8
Maße
 62
     0
440
 16777216
370
    -2
100
AcDbLine
 10
161.2181868994283
 20
53.49691676648451
 30
0.0
 11
161.2181868994283
 21
6.054389061428764
 31
0.0
  0
LINE
  5
2B96
330
2632
100
AcDbEntity
  8
Maße
 62
     0
440
 16777216
370
    -2
100
AcDbLine
 10
63.71818877942827
 20
7.054389061428764
 30
0.0
 11
158.7181868994282
 21
7.054389061428764
 31
0.0
  0
SOLID
  5
2B97
330
2632
100
AcDbEntity
  8
Maße
 62
     0
440
 16777216
100
AcDbTrace
 10
63.71818877942827
 20
7.471055728095431
 30
0.0
 11
63.71818877942827
 21
6.637722394762097
 31
0.0
 12
61.21818877942827
 22
7.054389061428764
 32
0.0
 13
61.21818877942827
 23
7.054389061428764
 33
0.0
  0
SOLID
  5
2B98
330
2632
100
AcDbEntity
  8
Maße
 62
     0
440
 16777216
100
AcDbTrace
 10
158.7181868994282
 20
7.471055728095431
 30
0.0
 11
158.7181868994282
 21
6.637722394762097
 31
0.0
 12
161.2181868994283
 22
7.054389061428764
 32
0.0
 13
161.2181868994283
 23
7.054389061428764
 33
0.0
  0
MTEXT
  5
2B99
330
2632
100
AcDbEntity
  8
Maße
 62
     0
440
 16777216
100
AcDbMText
 10
111.2181878394283
 20
9.341394518454684
 30
0.0
 40
2.0
 41
0.0
 46
0.0
 71
     5
 72
     1
  1
{\H1.75x;100}
 73
     1
 44
1.0
  0
POINT
  5
2B9A
330
2632
100
AcDbEntity
  8
Defpoints
 62
     0
440
 16777216
100
AcDbPoint
 10
61.21818877942827
 20
54.4969167664845
 30
0.0
  0
POINT
  5
2B9B
330
2632
100
AcDbEntity
  8
Defpoints
 62
     0
440
 16777216
100
AcDbPoint
 10
161.2181868994283
 20
54.4969167664845
 30
0.0
  0
POINT
  5
2B9C
330
2632
100
AcDbEntity
  8
Defpoints
 62
     0
440
 16777216
100
AcDbPoint
 10
161.2181868994283
 20
7.054389061428764
 30
0.0
  0
ENDBLK
  5
2634
330
2632
100
AcDbEntity
  8
0
100
AcDbBlockEnd
  0
BLOCK
  5
2677
330
2676
100
AcDbEntity
  8
0
100
AcDbBlockBegin
  2
*D17
 70
     1
 10
0.0
 20
0.0
 30
0.0
  3
*D17
  1

  0
LINE
  5
2B12
330
2676
100
AcDbEntity
  8
Maße
 62
     0
440
 16777216
370
    -2
100
AcDbLine
 10
112.2208612988516
 20
150.4944844864845
 30
0.0
 11
201.4607257202524
 21
150.4944844864844
 31
0.0
  0
LINE
  5
2B13
330
2676
100
AcDbEntity
  8
Maße
 62
     0
440
 16777216
370
    -2
100
AcDbLine
 10
194.2177094651206
 20
104.4935856432961
 30
0.0
 11
201.4607257202524
 21
104.4935856432961
 31
0.0
  0
LINE
  5
2B14
330
2676
100
AcDbEntity
  8
Maße
 62
     0
440
 16777216
370
    -2
100
AcDbLine
 10
200.4607257202524
 20
147.9944844864845
 30
0.0
 11
200.4607257202524
 21
106.9935856432961
 31
0.0
  0
SOLID
  5
2B15
330
2676
100
AcDbEntity
  8
Maße
 62
     0
440
 16777216
100
AcDbTrace
 10
200.0440590535858
 20
147.9944844864845
 30
0.0
 11
200.8773923869191
 21
147.9944844864845
 31
0.0
 12
200.4607257202524
 22
150.4944844864844
 32
0.0
 13
200.4607257202524
 23
150.4944844864844
 33
0.0
  0
SOLID
  5
2B16
330
2676
100
AcDbEntity
  8
Maße
 62
     0
440
 16777216
100
AcDbTrace
 10
200.0440590535858
 20
106.9935856432961
 30
0.0
 11
200.8773923869191
 21
106.9935856432961
 31
0.0
 12
200.4607257202524
 22
104.4935856432961
 32
0.0
 13
200.4607257202524
 23
104.4935856432961
 33
0.0
  0
MTEXT
  5
2B17
330
2676
100
AcDbEntity
  8
Maße
 62
     0
440
 16777216
100
AcDbMText
 10
198.1737202632265
 20
127.4940350648903
 30
0.0
 40
2.0
 41
0.0
 46
0.0
 71
     5
 72
     1
  1
{\H1.75x;46}
 11
0.0000000000000001
 21
1.0
 31
0.0
 73
     1
 44
1.0
  0
POINT
  5
2B18
330
2676
100
AcDbEntity
  8
Defpoints
 62
     0
440
 16777216
100
AcDbPoint
 10
111.2208612988516
 20
150.4944844864845
 30
0.0
  0
POINT
  5
2B19
330
2676
100
AcDbEntity
  8
Defpoints
 62
     0
440
 16777216
100
AcDbPoint
 10
193.2177094651206
 20
104.4935856432961
 30
0.0
  0
POINT
  5
2B1A
330
2676
100
AcDbEntity
  8
Defpoints
 62
     0
440
 16777216
100
AcDbPoint
 10
200.4607257202524
 20
104.4935856432961
 30
0.0
  0
ENDBLK
  5
2678
330
2676
100
AcDbEntity
  8
0
100
AcDbBlockEnd
  0
BLOCK
  5
2684
330
2683
100
AcDbEntity
  8
0
100
AcDbBlockBegin
  2
*D18
 70
     1
 10
0.0
 20
0.0
 30
0.0
  3
*D18
  1

  0
LINE
  5
2B1B
330
2683
100
AcDbEntity
  8
Maße
 62
     0
440
 16777216
370
    -2
100
AcDbLine
 10
162.2181868994283
 20
154.4969148864845
 30
0.0
 11
208.4607257202524
 21
154.4969148864845
 31
0.0
  0
LINE
  5
2B1C
330
2683
100
AcDbEntity
  8
Maße
 62
     0
440
 16777216
370
    -2
100
AcDbLine
 10
194.2177094651206
 20
104.4935856432961
 30
0.0
 11
208.4607257202524
 21
104.4935856432961
 31
0.0
  0
LINE
  5
2B1D
330
2683
100
AcDbEntity
  8
Maße
 62
     0
440
 16777216
370
    -2
100
AcDbLine
 10
207.4607257202524
 20
151.9969148864845
 30
0.0
 11
207.4607257202524
 21
106.9935856432961
 31
0.0
  0
SOLID
  5
2B1E
330
2683
100
AcDbEntity
  8
Maße
 62
     0
440
 16777216
100
AcDbTrace
 10
207.0440590535858
 20
151.9969148864845
 30
0.0
 11
207.8773923869191
 21
151.9969148864845
 31
0.0
 12
207.4607257202524
 22
154.4969148864845
 32
0.0
 13
207.4607257202524
 23
154.4969148864845
 33
0.0
  0
SOLID
  5
2B1F
330
2683
100
AcDbEntity
  8
Maße
 62
     0
440
 16777216
100
AcDbTrace
 10
207.0440590535858
 20
106.9935856432961
 30
0.0
 11
207.8773923869191
 21
106.9935856432961
 31
0.0
 12
207.4607257202524
 22
104.4935856432961
 32
0.0
 13
207.4607257202524
 23
104.4935856432961
 33
0.0
  0
MTEXT
  5
2B20
330
2683
100
AcDbEntity
  8
Maße
 62
     0
440
 16777216
100
AcDbMText
 10
205.1737202632265
 20
127.3639028974723
 30
0.0
 40
2.0
 41
0.0
 46
0.0
 71
     5
 72
     1
  1
{\H1.75x;50}
 11
0.0000000000000001
 21
1.0
 31
0.0
 73
     1
 44
1.0
  0
POINT
  5
2B21
330
2683
100
AcDbEntity
  8
Defpoints
 62
     0
440
 16777216
100
AcDbPoint
 10
161.2181868994283
 20
154.4969148864845
 30
0.0
  0
POINT
  5
2B22
330
2683
100
AcDbEntity
  8
Defpoints
 62
     0
440
 16777216
100
AcDbPoint
 10
193.2177094651206
 20
104.4935856432961
 30
0.0
  0
POINT
  5
2B23
330
2683
100
AcDbEntity
  8
Defpoints
 62
     0
440
 16777216
100
AcDbPoint
 10
207.4607257202524
 20
104.4935856432961
 30
0.0
  0
ENDBLK
  5
2685
330
2683
100
AcDbEntity
  8
0
100
AcDbBlockEnd
  0
BLOCK
  5
2691
330
2690
100
AcDbEntity
  8
0
100
AcDbBlockBegin
  2
*D19
 70
     1
 10
0.0
 20
0.0
 30
0.0
  3
*D19
  1

  0
LINE
  5
2ADC
330
2690
100
AcDbEntity
  8
Maße
 62
     0
440
 16777216
370
    -2
100
AcDbLine
 10
142.3245462194282
 20
58.50691382648451
 30
0.0
 11
201.4494214551127
 21
58.50691382648449
 31
0.0
  0
LINE
  5
2ADD
330
2690
100
AcDbEntity
  8
Maße
 62
     0
440
 16777216
370
    -2
100
AcDbLine
 10
194.2177094651206
 20
104.4935856432961
 30
0.0
 11
201.4494214551127
 21
104.4935856432961
 31
0.0
  0
LINE
  5
2ADE
330
2690
100
AcDbEntity
  8
Maße
 62
     0
440
 16777216
370
    -2
100
AcDbLine
 10
200.4494214551127
 20
61.00691382648449
 30
0.0
 11
200.4494214551128
 21
101.9935856432961
 31
0.0
  0
SOLID
  5
2ADF
330
2690
100
AcDbEntity
  8
Maße
 62
     0
440
 16777216
100
AcDbTrace
 10
200.0327547884461
 20
61.00691382648449
 30
0.0
 11
200.8660881217794
 21
61.00691382648449
 31
0.0
 12
200.4494214551127
 22
58.50691382648449
 32
0.0
 13
200.4494214551127
 23
58.50691382648449
 33
0.0
  0
SOLID
  5
2AE0
330
2690
100
AcDbEntity
  8
Maße
 62
     0
440
 16777216
100
AcDbTrace
 10
200.0327547884461
 20
101.9935856432961
 30
0.0
 11
200.8660881217794
 21
101.9935856432961
 31
0.0
 12
200.4494214551128
 22
104.4935856432961
 32
0.0
 13
200.4494214551128
 23
104.4935856432961
 33
0.0
  0
MTEXT
  5
2AE1
330
2690
100
AcDbEntity
  8
Maße
 62
     0
440
 16777216
100
AcDbMText
 10
198.1624159980868
 20
81.50024973489031
 30
0.0
 40
2.0
 41
0.0
 46
0.0
 71
     5
 72
     1
  1
{\H1.75x;46}
 11
0.0000000000000001
 21
1.0
 31
0.0
 73
     1
 44
1.0
  0
POINT
  5
2AE2
330
2690
100
AcDbEntity
  8
Defpoints
 62
     0
440
 16777216
100
AcDbPoint
 10
141.3245462194282
 20
58.50691382648451
 30
0.0
  0
POINT
  5
2AE3
330
2690
100
AcDbEntity
  8
Defpoints
 62
     0
440
 16777216
100
AcDbPoint
 10
193.2177094651206
 20
104.4935856432961
 30
0.0
  0
POINT
  5
2AE4
330
2690
100
AcDbEntity
  8
Defpoints
 62
     0
440
 16777216
100
AcDbPoint
 10
200.4494214551128
 20
104.4935856432961
 30
0.0
  0
ENDBLK
  5
2692
330
2690
100
AcDbEntity
  8
0
100
AcDbBlockEnd
  0
BLOCK
  5
269E
330
269D
100
AcDbEntity
  8
0
100
AcDbBlockBegin
  2
*D20
 70
     1
 10
0.0
 20
0.0
 30
0.0
  3
*D20
  1

  0
LINE
  5
2AE5
330
269D
100
AcDbEntity
  8
Maße
 62
     0
440
 16777216
370
    -2
100
AcDbLine
 10
162.2181868994283
 20
54.4969167664845
 30
0.0
 11
208.4494214551128
 21
54.49691676648448
 31
0.0
  0
LINE
  5
2AE6
330
269D
100
AcDbEntity
  8
Maße
 62
     0
440
 16777216
370
    -2
100
AcDbLine
 10
206.856717146321
 20
104.4935856432961
 30
0.0
 11
208.4494214551128
 21
104.4935856432961
 31
0.0
  0
LINE
  5
2AE7
330
269D
100
AcDbEntity
  8
Maße
 62
     0
440
 16777216
370
    -2
100
AcDbLine
 10
207.4494214551128
 20
56.99691676648449
 30
0.0
 11
207.4494214551128
 21
101.9935856432961
 31
0.0
  0
SOLID
  5
2AE8
330
269D
100
AcDbEntity
  8
Maße
 62
     0
440
 16777216
100
AcDbTrace
 10
207.0327547884461
 20
56.99691676648449
 30
0.0
 11
207.8660881217794
 21
56.99691676648449
 31
0.0
 12
207.4494214551128
 22
54.49691676648449
 32
0.0
 13
207.4494214551128
 23
54.49691676648449
 33
0.0
  0
SOLID
  5
2AE9
330
269D
100
AcDbEntity
  8
Maße
 62
     0
440
 16777216
100
AcDbTrace
 10
207.0327547884462
 20
101.9935856432961
 30
0.0
 11
207.8660881217794
 21
101.9935856432961
 31
0.0
 12
207.4494214551128
 22
104.4935856432961
 32
0.0
 13
207.4494214551128
 23
104.4935856432961
 33
0.0
  0
MTEXT
  5
2AEA
330
269D
100
AcDbEntity
  8
Maße
 62
     0
440
 16777216
100
AcDbMText
 10
205.1624159980868
 20
81.5698199250337
 30
0.0
 40
2.0
 41
0.0
 46
0.0
 71
     5
 72
     1
  1
{\H1.75x;50}
 11
0.0000000000000001
 21
1.0
 31
0.0
 73
     1
 44
1.0
  0
POINT
  5
2AEB
330
269D
100
AcDbEntity
  8
Defpoints
 62
     0
440
 16777216
100
AcDbPoint
 10
161.2181868994283
 20
54.4969167664845
 30
0.0
  0
POINT
  5
2AEC
330
269D
100
AcDbEntity
  8
Defpoints
 62
     0
440
 16777216
100
AcDbPoint
 10
205.856717146321
 20
104.4935856432961
 30
0.0
  0
POINT
  5
2AED
330
269D
100
AcDbEntity
  8
Defpoints
 62
     0
440
 16777216
100
AcDbPoint
 10
207.4494214551128
 20
104.4935856432961
 30
0.0
  0
ENDBLK
  5
269F
330
269D
100
AcDbEntity
  8
0
100
AcDbBlockEnd
  0
BLOCK
  5
26FB
330
26FA
100
AcDbEntity
  8
0
100
AcDbBlockBegin
  2
*D21
 70
     1
 10
0.0
 20
0.0
 30
0.0
  3
*D21
  1

  0
LINE
  5
2C1A
330
26FA
100
AcDbEntity
  8
Maße
 62
     0
440
 16777216
370
    -2
100
AcDbLine
 10
29.24860475067978
 20
186.0025433083034
 30
0.0
 11
29.24860475067978
 21
201.9644413029328
 31
0.0
  0
LINE
  5
2C1B
330
26FA
100
AcDbEntity
  8
Maße
 62
     0
440
 16777216
370
    -2
100
AcDbLine
 10
193.2181863994282
 20
185.9968466115845
 30
0.0
 11
193.2181863994282
 21
201.9644413029328
 31
0.0
  0
LINE
  5
2C1C
330
26FA
100
AcDbEntity
  8
Maße
 62
     0
440
 16777216
370
    -2
100
AcDbLine
 10
31.74860475067978
 20
200.9644413029327
 30
0.0
 11
190.7181863994282
 21
200.9644413029327
 31
0.0
  0
SOLID
  5
2C1D
330
26FA
100
AcDbEntity
  8
Maße
 62
     0
440
 16777216
100
AcDbTrace
 10
31.74860475067978
 20
201.3811079695994
 30
0.0
 11
31.74860475067978
 21
200.5477746362661
 31
0.0
 12
29.24860475067978
 22
200.9644413029327
 32
0.0
 13
29.24860475067978
 23
200.9644413029327
 33
0.0
  0
SOLID
  5
2C1E
330
26FA
100
AcDbEntity
  8
Maße
 62
     0
440
 16777216
100
AcDbTrace
 10
190.7181863994282
 20
201.3811079695994
 30
0.0
 11
190.7181863994282
 21
200.5477746362661
 31
0.0
 12
193.2181863994282
 22
200.9644413029327
 32
0.0
 13
193.2181863994282
 23
200.9644413029327
 33
0.0
  0
MTEXT
  5
2C1F
330
26FA
100
AcDbEntity
  8
Maße
 62
     0
440
 16777216
100
AcDbMText
 10
111.233395575054
 20
203.2514467599586
 30
0.0
 40
2.0
 41
0.0
 46
0.0
 71
     5
 72
     1
  1
{\H1.75x;164}
 73
     1
 44
1.0
  0
POINT
  5
2C20
330
26FA
100
AcDbEntity
  8
Defpoints
 62
     0
440
 16777216
100
AcDbPoint
 10
29.24860475067978
 20
185.0025433083034
 30
0.0
  0
POINT
  5
2C21
330
26FA
100
AcDbEntity
  8
Defpoints
 62
     0
440
 16777216
100
AcDbPoint
 10
193.2181863994282
 20
184.9968466115845
 30
0.0
  0
POINT
  5
2C22
330
26FA
100
AcDbEntity
  8
Defpoints
 62
     0
440
 16777216
100
AcDbPoint
 10
193.2181863994282
 20
200.9644413029327
 30
0.0
  0
ENDBLK
  5
26FC
330
26FA
100
AcDbEntity
  8
0
100
AcDbBlockEnd
  0
BLOCK
  5
2708
330
2707
100
AcDbEntity
  8
0
100
AcDbBlockBegin
  2
*D22
 70
     1
 10
0.0
 20
0.0
 30
0.0
  3
*D22
  1

  0
LINE
  5
2BC2
330
2707
100
AcDbEntity
  8
Maße
 62
     0
440
 16777216
370
    -2
100
AcDbLine
 10
32.00612904604505
 20
186.5018334442532
 30
0.0
 11
19.75468414391151
 21
186.5018334442532
 31
0.0
  0
LINE
  5
2BC3
330
2707
100
AcDbEntity
  8
Maße
 62
     0
440
 16777216
370
    -2
100
AcDbLine
 10
32.00612904604508
 20
22.4969147264845
 30
0.0
 11
19.75468414391147
 21
22.4969147264845
 31
0.0
  0
LINE
  5
2BC4
330
2707
100
AcDbEntity
  8
Maße
 62
     0
440
 16777216
370
    -2
100
AcDbLine
 10
20.75468414391151
 20
184.0018334442532
 30
0.0
 11
20.75468414391147
 21
24.9969147264845
 31
0.0
  0
SOLID
  5
2BC5
330
2707
100
AcDbEntity
  8
Maße
 62
     0
440
 16777216
100
AcDbTrace
 10
20.33801747724484
 20
184.0018334442532
 30
0.0
 11
21.17135081057818
 21
184.0018334442532
 31
0.0
 12
20.75468414391151
 22
186.5018334442532
 32
0.0
 13
20.75468414391151
 23
186.5018334442532
 33
0.0
  0
SOLID
  5
2BC6
330
2707
100
AcDbEntity
  8
Maße
 62
     0
440
 16777216
100
AcDbTrace
 10
20.3380174772448
 20
24.9969147264845
 30
0.0
 11
21.17135081057814
 21
24.9969147264845
 31
0.0
 12
20.75468414391147
 22
22.4969147264845
 32
0.0
 13
20.75468414391147
 23
22.4969147264845
 33
0.0
  0
MTEXT
  5
2BC7
330
2707
100
AcDbEntity
  8
Maße
 62
     0
440
 16777216
100
AcDbMText
 10
18.46767868688555
 20
104.4993740853689
 30
0.0
 40
2.0
 41
0.0
 46
0.0
 71
     5
 72
     1
  1
{\H1.75x;164}
 11
0.0000000000000001
 21
1.0
 31
0.0
 73
     1
 44
1.0
  0
POINT
  5
2BC8
330
2707
100
AcDbEntity
  8
Defpoints
 62
     0
440
 16777216
100
AcDbPoint
 10
33.00612904604506
 20
186.5018334442532
 30
0.0
  0
POINT
  5
2BC9
330
2707
100
AcDbEntity
  8
Defpoints
 62
     0
440
 16777216
100
AcDbPoint
 10
33.00612904604508
 20
22.4969147264845
 30
0.0
  0
POINT
  5
2BCA
330
2707
100
AcDbEntity
  8
Defpoints
 62
     0
440
 16777216
100
AcDbPoint
 10
20.75468414391147
 20
22.4969147264845
 30
0.0
  0
ENDBLK
  5
2709
330
2707
100
AcDbEntity
  8
0
100
AcDbBlockEnd
  0
BLOCK
  5
278A
330
2789
100
AcDbEntity
  8
0
100
AcDbBlockBegin
  2
*D23
 70
     1
 10
0.0
 20
0.0
 30
0.0
  3
*D23
  1

  0
LINE
  5
2A67
330
2789
100
AcDbEntity
  8
Maße
 62
     0
440
 16777216
370
    -2
100
AcDbLine
 10
258.4538300847192
 20
90.63209783538425
 30
0.0
 11
258.4538300847192
 21
11.44542863671404
 31
0.0
  0
LINE
  5
2A68
330
2789
100
AcDbEntity
  8
Maße
 62
     0
440
 16777216
370
    -2
100
AcDbLine
 10
264.4538300847192
 20
21.4969147264845
 30
0.0
 11
264.4538300847192
 21
11.44542863671404
 31
0.0
  0
LINE
  5
2A69
330
2789
100
AcDbEntity
  8
Maße
 62
     0
440
 16777216
370
    -2
100
AcDbLine
 10
255.9538300847192
 20
12.44542863671404
 30
0.0
 11
253.4538300847192
 21
12.44542863671404
 31
0.0
  0
LINE
  5
2A6A
330
2789
100
AcDbEntity
  8
Maße
 62
     0
440
 16777216
370
    -2
100
AcDbLine
 10
266.9538300847193
 20
12.44542863671404
 30
0.0
 11
269.4538300847193
 21
12.44542863671404
 31
0.0
  0
LINE
  5
2A6B
330
2789
100
AcDbEntity
  8
Maße
 62
     0
440
 16777216
370
    -2
100
AcDbLine
 10
258.4538300847192
 20
12.44542863671404
 30
0.0
 11
264.4538300847192
 21
12.44542863671404
 31
0.0
  0
SOLID
  5
2A6C
330
2789
100
AcDbEntity
  8
Maße
 62
     0
440
 16777216
100
AcDbTrace
 10
255.9538300847192
 20
12.8620953033807
 30
0.0
 11
255.9538300847192
 21
12.02876197004737
 31
0.0
 12
258.4538300847192
 22
12.44542863671404
 32
0.0
 13
258.4538300847192
 23
12.44542863671404
 33
0.0
  0
SOLID
  5
2A6D
330
2789
100
AcDbEntity
  8
Maße
 62
     0
440
 16777216
100
AcDbTrace
 10
266.9538300847193
 20
12.8620953033807
 30
0.0
 11
266.9538300847193
 21
12.02876197004737
 31
0.0
 12
264.4538300847192
 22
12.44542863671404
 32
0.0
 13
264.4538300847192
 23
12.44542863671404
 33
0.0
  0
MTEXT
  5
2A6E
330
2789
100
AcDbEntity
  8
Maße
 62
     0
440
 16777216
100
AcDbMText
 10
261.4538300847192
 20
14.73243409373996
 30
0.0
 40
2.0
 41
0.0
 46
0.0
 71
     5
 72
     1
  1
{\H1.75x;6}
 73
     1
 44
1.0
  0
POINT
  5
2A6F
330
2789
100
AcDbEntity
  8
Defpoints
 62
     0
440
 16777216
100
AcDbPoint
 10
258.4538300847192
 20
91.63209783538425
 30
0.0
  0
POINT
  5
2A70
330
2789
100
AcDbEntity
  8
Defpoints
 62
     0
440
 16777216
100
AcDbPoint
 10
264.4538300847192
 20
22.4969147264845
 30
0.0
  0
POINT
  5
2A71
330
2789
100
AcDbEntity
  8
Defpoints
 62
     0
440
 16777216
100
AcDbPoint
 10
264.4538300847192
 20
12.44542863671404
 30
0.0
  0
ENDBLK
  5
278B
330
2789
100
AcDbEntity
  8
0
100
AcDbBlockEnd
  0
BLOCK
  5
2C3F
330
2C3E
100
AcDbEntity
  8
0
100
AcDbBlockBegin
  2
*D24
 70
     1
 10
0.0
 20
0.0
 30
0.0
  3
*D24
  1

  0
LINE
  5
2C41
330
2C3E
100
AcDbEntity
  8
Mittellinie
 62
     0
440
 16777216
370
    -2
100
AcDbLine
 10
93.16689010753741
 20
66.30945312515857
 30
0.0
 11
85.1589546854171
 21
61.03663512799124
 31
0.0
  0
LINE
  5
2C42
330
2C3E
100
AcDbEntity
  8
Mittellinie
 62
     0
440
 16777216
370
    -2
100
AcDbLine
 10
77.47507679343939
 20
55.97719252497776
 30
0.0
 11
75.38706574320669
 21
54.60234349540901
 31
0.0
  0
MTEXT
  5
2C43
330
2C3E
100
AcDbEntity
  8
Mittellinie
 62
     0
440
 16777216
100
AcDbMText
 10
88.89538196807936
 20
66.35234002863788
 30
0.0
 40
3.5
 41
0.0
 46
0.0
 71
     5
 72
     1
  1
∅4
 11
0.8352044200930826
 21
0.5499396118274964
 31
0.0
 73
     1
 44
1.0
  0
LINE
  5
2C44
330
2C3E
100
AcDbEntity
  8
Mittellinie
 62
     0
440
 16777216
370
    -2
100
AcDbLine
 10
79.56308784367211
 20
57.3520415545465
 30
0.0
 11
83.07094363518439
 21
59.66178609842249
 31
0.0
  0
SOLID
  5
2C45
330
2C3E
100
AcDbEntity
  8
Mittellinie
 62
     0
440
 16777216
100
AcDbTrace
 10
77.24593528851127
 20
56.32519436668321
 30
0.0
 11
77.70421829836752
 21
55.62919068327231
 31
0.0
 12
79.56308784367211
 22
57.3520415545465
 32
0.0
 13
79.56308784367211
 23
57.3520415545465
 33
0.0
  0
SOLID
  5
2C46
330
2C3E
100
AcDbEntity
  8
Mittellinie
 62
     0
440
 16777216
100
AcDbTrace
 10
84.92981318048897
 20
61.38463696969669
 30
0.0
 11
85.38809619034521
 21
60.68863328628579
 31
0.0
 12
83.07094363518439
 22
59.66178609842249
 32
0.0
 13
83.07094363518439
 23
59.66178609842249
 33
0.0
  0
POINT
  5
2C47
330
2C3E
100
AcDbEntity
  8
Defpoints
 62
     0
440
 16777216
100
AcDbPoint
 10
83.07094363518439
 20
59.66178609842249
 30
0.0
  0
POINT
  5
2C48
330
2C3E
100
AcDbEntity
  8
Defpoints
 62
     0
440
 16777216
100
AcDbPoint
 10
79.56308784367211
 20
57.3520415545465
 30
0.0
  0
ENDBLK
  5
2C40
330
2C3E
100
AcDbEntity
  8
0
100
AcDbBlockEnd
  0
ENDSEC
  0
SECTION
  2
ENTITIES
  0
CIRCLE
  5
2324
330
1F
100
AcDbEntity
  8
Kachel
370
    35
100
AcDbCircle
 10
161.2181868994283
 20
154.4969148864845
 30
0.0
 40
2.099998340000012
  0
CIRCLE
  5
2325
330
1F
100
AcDbEntity
  8
Kachel
370
    35
100
AcDbCircle
 10
111.2271260994282
 20
150.4944844864845
 30
0.0
 40
2.099998340000012
  0
CIRCLE
  5
2326
330
1F
100
AcDbEntity
  8
Kachel
370
    35
100
AcDbCircle
 10
141.3245462194282
 20
58.50691382648451
 30
0.0
 40
2.099998339999984
  0
CIRCLE
  5
2327
330
1F
100
AcDbEntity
  8
Kachel
370
    35
100
AcDbCircle
 10
161.2181868994283
 20
54.4969167664845
 30
0.0
 40
2.099998340000012
  0
CIRCLE
  5
2328
330
1F
100
AcDbEntity
  8
Kachel
370
    35
100
AcDbCircle
 10
61.21818877942827
 20
154.4969148864845
 30
0.0
 40
2.099998339999984
  0
CIRCLE
  5
2329
330
1F
100
AcDbEntity
  8
Kachel
370
    35
100
AcDbCircle
 10
81.31701573942825
 20
58.50691382648451
 30
0.0
 40
2.099998340000012
  0
CIRCLE
  5
232A
330
1F
100
AcDbEntity
  8
Kachel
370
    35
100
AcDbCircle
 10
61.21818877942827
 20
54.4969167664845
 30
0.0
 40
2.099998339999984
  0
INSERT
  5
23CA
102
{ACAD_REACTORS
330
23E0
102
}
330
1F
100
AcDbEntity
  8
Kachel
370
    35
100
AcDbBlockReference
  2
*U2
 10
36.2169460192589
 20
29.30059857621811
 30
0.0
  0
LWPOLYLINE
  5
247C
330
1F
100
AcDbEntity
  8
Kachel
370
    35
100
AcDbPolyline
 90
        2
 70
     0
 43
0.0
 10
193.2181863994282
 20
185.6878700237666
 10
193.2181863994282
 20
185.6855628112203
  0
LWPOLYLINE
  5
2487
330
1F
100
AcDbEntity
  8
Kachel
370
    35
100
AcDbPolyline
 90
       92
 70
     0
 43
0.0
 10
30.74860475067978
 20
22.4969147264845
 42
-0.4142135623730951
 10
29.24860475067978
 20
23.9969147264845
 10
29.24860475067978
 20
185.0025433083034
 42
-0.4142135623730915
 10
30.74888811162165
 20
186.5022598938225
 10
59.04320201942827
 20
186.4969143864845
 10
59.04320201942827
 20
184.4270023464845
 10
59.03279817942827
 20
184.4270023464845
 10
59.07430939942827
 20
184.0055274464845
 10
59.19724793942826
 20
183.6002501264845
 10
59.39689193942827
 20
183.2267456664845
 10
59.66556551942827
 20
182.8993650664845
 10
59.99294611942826
 20
182.6306914864845
 10
60.36645057942826
 20
182.4310474864845
 10
60.77172789942827
 20
182.3081089464845
 10
61.19320279942826
 20
182.2665977264845
 10
61.61467769942827
 20
182.3081089464845
 10
62.01995501942827
 20
182.4310474864845
 10
62.39345947942827
 20
182.6306914864845
 10
62.72084007942827
 20
182.8993650664845
 10
62.98951365942826
 20
183.2267456664845
 10
63.18915765942826
 20
183.6002501264845
 10
63.31209619942827
 20
184.0055274464845
 10
63.35360741942827
 20
184.4270023464845
 10
63.34320611942827
 20
184.4270023464845
 10
63.34320611942827
 20
186.4968466115845
 10
159.0859324740282
 20
186.4968466115845
 10
159.0859324740282
 20
184.4669344915845
 10
159.0755299040282
 20
184.4669344915845
 10
159.1170411240282
 20
184.0454595915845
 10
159.2399796640282
 20
183.6401822715845
 10
159.4396236640282
 20
183.2666778115845
 10
159.7082972440283
 20
182.9392972115845
 10
160.0356778440283
 20
182.6706236315845
 10
160.4091823040282
 20
182.4709796315845
 10
160.8144596240282
 20
182.3480410915845
 10
161.2359345240282
 20
182.3065298715845
 10
161.6574094240282
 20
182.3480410915845
 10
162.0626867440283
 20
182.4709796315845
 10
162.4361912040282
 20
182.6706236315845
 10
162.7635718040282
 20
182.9392972115845
 10
163.0322453840283
 20
183.2666778115845
 10
163.2318893840283
 20
183.6401822715845
 10
163.3548279240282
 20
184.0454595915845
 10
163.3963391440282
 20
184.4669344915845
 10
163.3859353040282
 20
186.4968466115845
 10
191.7181863994283
 20
186.4968466115845
 42
-0.4142135623730951
 10
193.2181863994282
 20
184.9968466115845
 10
193.2175638102158
 20
23.99032466259573
 42
-0.4142805177154537
 10
191.7172151183049
 20
22.4903305034101
 10
163.3932600194282
 20
22.4969147264845
 10
163.3932600194282
 20
24.56691566648451
 10
163.4036638594282
 20
24.56691566648451
 10
163.3621526394283
 20
24.98839056648451
 10
163.2392140994283
 20
25.39366788648451
 10
163.0395700994282
 20
25.76717234648452
 10
162.7708965194283
 20
26.09455294648451
 10
162.4435159194282
 20
26.36322652648451
 10
162.0700114594282
 20
26.5628705264845
 10
161.6647341394283
 20
26.68580906648451
 10
161.2432592394282
 20
26.72732028648451
 10
160.8217843394282
 20
26.68580906648451
 10
160.4165070194283
 20
26.5628705264845
 10
160.0430025594282
 20
26.36322652648451
 10
159.7156219594282
 20
26.09455294648451
 10
159.4469483794282
 20
25.76717234648452
 10
159.2473043794282
 20
25.39366788648451
 10
159.1243658394282
 20
24.98839056648451
 10
159.0828546194282
 20
24.56691566648451
 10
159.0932559194282
 20
24.56691566648451
 10
159.0932559194282
 20
22.4969147264845
 10
63.39320601942826
 20
22.4969147264845
 10
63.39320601942826
 20
24.66691546648451
 10
63.40360985942827
 20
24.66691546648451
 10
63.36209863942826
 20
25.0883903664845
 10
63.23916009942826
 20
25.49366768648452
 10
63.03951609942827
 20
25.86717214648451
 10
62.77084251942827
 20
26.1945527464845
 10
62.44346191942828
 20
26.46322632648451
 10
62.06995745942826
 20
26.66287032648451
 10
61.66468013942827
 20
26.7858088664845
 10
61.24320523942826
 20
26.8273200864845
 10
60.82173033942827
 20
26.7858088664845
 10
60.41645301942826
 20
26.66287032648451
 10
60.04294855942827
 20
26.46322632648451
 10
59.71556795942827
 20
26.1945527464845
 10
59.44689437942827
 20
25.86717214648451
 10
59.24725037942827
 20
25.49366768648452
 10
59.12431183942827
 20
25.0883903664845
 10
59.08280061942827
 20
24.66691546648451
 10
59.09320191942827
 20
24.66691546648451
 10
59.09320191942827
 20
22.4969147264845
 10
30.74840655898433
 20
22.4969147264845
  0
LWPOLYLINE
  5
249B
330
1F
100
AcDbEntity
  8
Kachel
370
    35
100
AcDbPolyline
 90
        4
 70
     1
 43
0.0
 10
266.0538300847193
 20
22.4969147264845
 10
264.4538300847192
 20
22.4969147264845
 10
264.4538300847192
 20
186.4969147264845
 10
266.0538300847193
 20
186.4969147264845
  0
INSERT
  5
24F4
330
1F
100
AcDbEntity
  8
0
100
AcDbBlockReference
  2
A$C76B83AF1
 10
3.983011158624094
 20
-313.2146259209155
 30
0.0
  0
INSERT
  5
252E
330
1F
100
AcDbEntity
  8
Kachel
370
    35
100
AcDbBlockReference
  2
A$C3D1E2265
 10
266.0538300847193
 20
126.8005985156681
 30
0.0
 41
-1.0
  0
INSERT
  5
252F
330
1F
100
AcDbEntity
  8
Kachel
370
    35
100
AcDbBlockReference
  2
A$C3D1E2265
 10
266.0538300847193
 20
176.8005985156681
 30
0.0
 41
-1.0
  0
INSERT
  5
2531
330
1F
100
AcDbEntity
  8
Kachel
370
    35
100
AcDbBlockReference
  2
A$C3D1E2265
 10
266.0538300847193
 20
26.80059851566813
 30
0.0
 41
-1.0
  0
INSERT
  5
2533
330
1F
100
AcDbEntity
  8
Kachel
370
    35
100
AcDbBlockReference
  2
A$C3D1E2265
 10
266.0538300847193
 20
76.80059851566813
 30
0.0
 41
-1.0
  0
LWPOLYLINE
  5
254F
330
1F
100
AcDbEntity
  8
0
100
AcDbPolyline
 90
        4
 70
     1
 43
0.0
 10
33.61374585293038
 20
-327.8046250044155
 10
33.61374585293038
 20
-317.8046250044155
 10
27.61374585293038
 20
-317.8046250044155
 10
27.61374585293038
 20
-327.8046250044155
  0
LINE
  5
2553
330
1F
100
AcDbEntity
  8
0
100
AcDbLine
 10
29.02374675833039
 20
-327.8046250044155
 30
0.0
 11
29.02374675833039
 21
-317.8046250044155
 31
0.0
  0
LINE
  5
2555
330
1F
100
AcDbEntity
  8
0
100
AcDbLine
 10
28.72374726793032
 20
-327.8046250044155
 30
0.0
 11
28.72374726793032
 21
-317.8046250044155
 31
0.0
  0
INSERT
  5
2560
102
{ACAD_REACTORS
330
2569
102
}
330
1F
100
AcDbEntity
  8
0
100
AcDbBlockReference
  2
*U6
 10
30.18874739373035
 20
-326.6146250044155
 30
0.0
 50
90.0
  0
INSERT
  5
25A1
330
1F
100
AcDbEntity
  8
Kachel
370
    35
100
AcDbBlockReference
  2
A$C09991113
 10
264.4538300847192
 20
91.63209783538425
 30
0.0
 41
-1.0
  0
INSERT
  5
25D8
330
1F
100
AcDbEntity
  8
Kachel
370
    35
100
AcDbBlockReference
  2
A$C7B6C75C7
 10
132.5697159021856
 20
92.49709783538426
 30
0.0
  0
INSERT
  5
25D9
330
1F
100
AcDbEntity
  8
Kachel
370
    35
100
AcDbBlockReference
  2
A$C7B6C75C7
 10
89.2529643919093
 20
92.49709783538426
 30
0.0
  0
LWPOLYLINE
  5
25FB
330
1F
100
AcDbEntity
  8
Mittellinie
  6
MITTE2
100
AcDbPolyline
 90
        4
 70
     0
 43
0.0
 10
111.2432309694282
 20
19.4969147264845
 10
111.2432309694282
 20
22.4969147264845
 10
111.2145692967282
 20
186.4968466115845
 10
111.2145692967282
 20
190.4968466115845
  0
LWPOLYLINE
  5
25FF
330
1F
100
AcDbEntity
  8
Mittellinie
  6
MITTE2
 62
     0
100
AcDbPolyline
 90
        4
 70
     0
 43
0.0
 10
198.217875104822
 20
104.4935856370901
 10
193.217875104822
 20
104.4935856370901
 10
29.24860475067978
 20
104.499729017394
 10
25.24860475067978
 20
104.499729017394
  0
LINE
  5
2605
330
1F
100
AcDbEntity
  8
Mittellinie
100
AcDbLine
 10
58.11819043942829
 20
154.4969148864845
 30
0.0
 11
64.31818711942826
 21
154.4969148864845
 31
0.0
  0
LINE
  5
2608
330
1F
100
AcDbEntity
  8
Mittellinie
100
AcDbLine
 10
61.21818877942827
 20
157.5969132264845
 30
0.0
 11
61.21818877942827
 21
151.3969165464845
 31
0.0
  0
INSERT
  5
2610
330
1F
100
AcDbEntity
  8
Mittellinie
100
AcDbBlockReference
  2
A$C65873F99
 10
111.2271260994282
 20
150.4944844864845
 30
0.0
  0
INSERT
  5
2611
330
1F
100
AcDbEntity
  8
Mittellinie
100
AcDbBlockReference
  2
A$C65873F99
 10
161.2181868994283
 20
154.4969148864845
 30
0.0
  0
INSERT
  5
2612
330
1F
100
AcDbEntity
  8
Mittellinie
100
AcDbBlockReference
  2
A$C65873F99
 10
61.21818877942827
 20
54.4969167664845
 30
0.0
  0
INSERT
  5
2613
330
1F
100
AcDbEntity
  8
Mittellinie
100
AcDbBlockReference
  2
A$C65873F99
 10
81.31701573942825
 20
58.50691382648451
 30
0.0
  0
INSERT
  5
2614
330
1F
100
AcDbEntity
  8
Mittellinie
100
AcDbBlockReference
  2
A$C65873F99
 10
141.3245462194282
 20
58.50691382648451
 30
0.0
  0
INSERT
  5
2615
330
1F
100
AcDbEntity
  8
Mittellinie
100
AcDbBlockReference
  2
A$C65873F99
 10
161.2181868994283
 20
54.4969167664845
 30
0.0
  0
DIMENSION
  5
2617
330
1F
100
AcDbEntity
  8
Maße
 62
     0
100
AcDbDimension
280
     0
  2
*D14
 10
161.2181868994283
 20
193.9644413029327
 30
0.0
 11
111.2181878394283
 21
196.2514467599586
 31
0.0
 70
    32
  1
{\H1.75x;<>}
 71
     5
 42
99.99999812
 73
     0
 74
     0
 75
     0
  3
ISO-25
100
AcDbAlignedDimension
 13
61.21818877942827
 23
154.4969148864845
 33
0.0
 14
161.2181868994283
 24
154.4969148864845
 34
0.0
100
AcDbRotatedDimension
1001
ACAD
1000
DSTYLE
1002
{
1070
   279
1070
     0
1070
    42
1040
1.0
1070
    43
1040
4.0
1070
    44
1040
1.0
1070
    78
1070
     0
1070
   140
1040
2.0
1070
   179
1070
     2
1070
   271
1070
     0
1070
   272
1070
     0
1070
   284
1070
     0
1002
}
  0
DIMENSION
  5
2624
330
1F
100
AcDbEntity
  8
Maße
 62
     0
100
AcDbDimension
280
     0
  2
*D15
 10
141.3245462194282
 20
14.05438906142876
 30
0.0
 11
111.3207809794282
 21
14.05438906142876
 31
0.0
 70
   160
  1
{\H1.75x;60}
 71
     5
 42
60.00753048000001
 73
     0
 74
     0
 75
     0
  3
ISO-25
100
AcDbAlignedDimension
 13
81.31701573942825
 23
58.50691382648451
 33
0.0
 14
141.3245462194282
 24
58.50691382648451
 34
0.0
100
AcDbRotatedDimension
1001
ACAD
1000
DSTYLE
1002
{
1070
   279
1070
     0
1070
    42
1040
1.0
1070
    43
1040
4.0
1070
    44
1040
1.0
1070
    78
1070
     0
1070
   140
1040
2.0
1070
   179
1070
     2
1070
   271
1070
     0
1070
   272
1070
     0
1070
   284
1070
     0
1002
}
  0
DIMENSION
  5
2631
330
1F
100
AcDbEntity
  8
Maße
 62
     0
100
AcDbDimension
280
     0
  2
*D16
 10
161.2181868994283
 20
7.054389061428764
 30
0.0
 11
111.2181878394283
 21
7.054389061428764
 31
0.0
 70
   160
  1
{\H1.75x;<>}
 71
     5
 42
99.99999812
 73
     0
 74
     0
 75
     0
  3
ISO-25
100
AcDbAlignedDimension
 13
61.21818877942827
 23
54.4969167664845
 33
0.0
 14
161.2181868994283
 24
54.4969167664845
 34
0.0
100
AcDbRotatedDimension
1001
ACAD
1000
DSTYLE
1002
{
1070
   279
1070
     0
1070
    42
1040
1.0
1070
    43
1040
4.0
1070
    44
1040
1.0
1070
    78
1070
     0
1070
   140
1040
2.0
1070
   179
1070
     2
1070
   271
1070
     0
1070
   272
1070
     0
1070
   284
1070
     0
1002
}
  0
DIMENSION
  5
2675
330
1F
100
AcDbEntity
  8
Maße
 62
     0
100
AcDbDimension
280
     0
  2
*D17
 10
200.4607257202524
 20
104.4935856432961
 30
0.0
 11
198.1737202632265
 21
127.4940350648903
 31
0.0
 70
    32
  1
{\H1.75x;<>}
 71
     5
 42
46.0008988431884
 73
     0
 74
     0
 75
     0
  3
ISO-25
100
AcDbAlignedDimension
 13
111.2208612988516
 23
150.4944844864845
 33
0.0
 14
193.2177094651206
 24
104.4935856432961
 34
0.0
 50
90.0
100
AcDbRotatedDimension
1001
ACAD
1000
DSTYLE
1002
{
1070
   279
1070
     0
1070
    42
1040
1.0
1070
    43
1040
4.0
1070
    44
1040
1.0
1070
    78
1070
     0
1070
   140
1040
2.0
1070
   179
1070
     2
1070
   271
1070
     0
1070
   272
1070
     0
1070
   284
1070
     0
1002
}
  0
DIMENSION
  5
2682
330
1F
100
AcDbEntity
  8
Maße
 62
     0
100
AcDbDimension
280
     0
  2
*D18
 10
207.4607257202524
 20
104.4935856432961
 30
0.0
 11
207.4607257202524
 21
127.3639028974723
 31
0.0
 70
   160
  1
{\H1.75x;<>}
 71
     5
 42
50.00332924318842
 73
     0
 74
     0
 75
     0
  3
ISO-25
100
AcDbAlignedDimension
 13
161.2181868994283
 23
154.4969148864845
 33
0.0
 14
193.2177094651206
 24
104.4935856432961
 34
0.0
 50
90.0
100
AcDbRotatedDimension
1001
ACAD
1000
DSTYLE
1002
{
1070
   279
1070
     0
1070
    42
1040
1.0
1070
    43
1040
4.0
1070
    44
1040
1.0
1070
    78
1070
     0
1070
   140
1040
2.0
1070
   179
1070
     2
1070
   271
1070
     0
1070
   272
1070
     0
1070
   284
1070
     0
1002
}
  0
DIMENSION
  5
268F
330
1F
100
AcDbEntity
  8
Maße
 62
     0
100
AcDbDimension
280
     0
  2
*D19
 10
200.4494214551128
 20
104.4935856432961
 30
0.0
 11
198.1624159980868
 21
81.50024973489031
 31
0.0
 70
    32
  1
{\H1.75x;<>}
 71
     5
 42
45.98667181681159
 73
     0
 74
     0
 75
     0
  3
ISO-25
100
AcDbAlignedDimension
 13
141.3245462194282
 23
58.50691382648451
 33
0.0
 14
193.2177094651206
 24
104.4935856432961
 34
0.0
 50
90.0
100
AcDbRotatedDimension
1001
ACAD
1000
DSTYLE
1002
{
1070
   279
1070
     0
1070
    42
1040
1.0
1070
    43
1040
4.0
1070
    44
1040
1.0
1070
    78
1070
     0
1070
   140
1040
2.0
1070
   179
1070
     2
1070
   271
1070
     0
1070
   272
1070
     0
1070
   284
1070
     0
1002
}
  0
DIMENSION
  5
269C
330
1F
100
AcDbEntity
  8
Maße
 62
     0
100
AcDbDimension
280
     0
  2
*D20
 10
207.4494214551128
 20
104.4935856432961
 30
0.0
 11
207.4494214551128
 21
81.5698199250337
 31
0.0
 70
   160
  1
{\H1.75x;<>}
 71
     5
 42
49.99666887681159
 73
     0
 74
     0
 75
     0
  3
ISO-25
100
AcDbAlignedDimension
 13
161.2181868994283
 23
54.4969167664845
 33
0.0
 14
205.856717146321
 24
104.4935856432961
 34
0.0
 50
90.0
100
AcDbRotatedDimension
1001
ACAD
1000
DSTYLE
1002
{
1070
   279
1070
     0
1070
    42
1040
1.0
1070
    43
1040
4.0
1070
    44
1040
1.0
1070
    78
1070
     0
1070
   140
1040
2.0
1070
   179
1070
     2
1070
   271
1070
     0
1070
   272
1070
     0
1070
   284
1070
     0
1002
}
  0
DIMENSION
  5
26F9
330
1F
100
AcDbEntity
  8
Maße
 62
     0
100
AcDbDimension
280
     0
  2
*D21
 10
193.2181863994282
 20
200.9644413029327
 30
0.0
 11
111.233395575054
 21
200.9644413029327
 31
0.0
 70
   160
  1
{\H1.75x;<>}
 71
     5
 42
163.9695816487485
 73
     0
 74
     0
 75
     0
  3
ISO-25
100
AcDbAlignedDimension
 13
29.24860475067978
 23
185.0025433083034
 33
0.0
 14
193.2181863994282
 24
184.9968466115845
 34
0.0
100
AcDbRotatedDimension
1001
ACAD
1000
DSTYLE
1002
{
1070
   279
1070
     0
1070
    42
1040
1.0
1070
    43
1040
4.0
1070
    44
1040
1.0
1070
    78
1070
     0
1070
   140
1040
2.0
1070
   179
1070
     2
1070
   271
1070
     0
1070
   272
1070
     0
1070
   284
1070
     0
1002
}
  0
DIMENSION
  5
2706
330
1F
100
AcDbEntity
  8
Maße
 62
     0
100
AcDbDimension
280
     0
  2
*D22
 10
20.75468414391147
 20
22.4969147264845
 30
0.0
 11
20.75468414391147
 21
104.4993740853689
 31
0.0
 70
   160
  1
{\H1.75x;<>}
 71
     5
 42
164.0049187177687
 73
     0
 74
     0
 75
     0
  3
ISO-25
100
AcDbAlignedDimension
 13
33.00612904604506
 23
186.5018334442532
 33
0.0
 14
33.00612904604508
 24
22.4969147264845
 34
0.0
 50
90.0
100
AcDbRotatedDimension
1001
ACAD
1000
DSTYLE
1002
{
1070
    42
1040
1.0
1070
    43
1040
4.0
1070
    44
1040
1.0
1070
    78
1070
     0
1070
   140
1040
2.0
1070
   179
1070
     2
1070
   271
1070
     0
1070
   272
1070
     0
1070
   284
1070
     0
1002
}
  0
DIMENSION
  5
2788
330
1F
100
AcDbEntity
  8
Maße
 62
     0
100
AcDbDimension
280
     0
  2
*D23
 10
264.4538300847192
 20
12.44542863671404
 30
0.0
 11
261.4538300847192
 21
14.73243409373996
 31
0.0
 70
    32
  1
{\H1.75x;<>}
 71
     5
 42
6.0
 73
     0
 74
     0
 75
     0
  3
ISO-25
100
AcDbAlignedDimension
 13
258.4538300847192
 23
91.63209783538425
 33
0.0
 14
264.4538300847192
 24
22.4969147264845
 34
0.0
100
AcDbRotatedDimension
1001
ACAD
1000
DSTYLE
1002
{
1070
    42
1040
1.0
1070
    43
1040
4.0
1070
    44
1040
1.0
1070
    78
1070
     0
1070
   140
1040
2.0
1070
   179
1070
     2
1070
   271
1070
     0
1070
   272
1070
     0
1070
   284
1070
     0
1002
}
  0
DIMENSION
  5
2C3D
330
1F
100
AcDbEntity
  8
Mittellinie
100
AcDbDimension
280
     0
  2
*D24
 10
79.56308784367211
 20
57.3520415545465
 30
0.0
 11
90.20692792159362
 21
64.36046864135928
 31
0.0
 70
    35
 71
     5
 42
4.199996680000026
 73
     0
 74
     0
 75
     0
  3
ISO-25
100
AcDbDiametricDimension
 15
83.07094363518439
 25
59.66178609842249
 35
0.0
 40
0.0
1001
ACAD
1000
DSTYLE
1002
{
1070
    42
1040
1.0
1070
    43
1040
4.0
1070
    44
1040
1.0
1070
    78
1070
     0
1070
   140
1040
3.5
1070
   179
1070
     2
1070
   271
1070
     0
1070
   272
1070
     0
1070
   284
1070
     0
1070
   288
1070
     1
1002
}
1001
ACAD_DSTYLE_DIMRADIAL_EXTENSION
1070
   387
1070
     1
1070
   388
1040
0.0
1070
   390
1040
0.0
  0
ENDSEC
  0
SECTION
  2
OBJECTS
  0
DICTIONARY
  5
C
330
0
100
AcDbDictionary
281
     1
  3
ACAD_ASSOCNETWORK
350
23D8
  3
ACAD_CIP_PREVIOUS_PRODUCT_INFO
350
334
  3
ACAD_COLOR
350
329
  3
ACAD_DETAILVIEWSTYLE
350
330
  3
ACAD_GROUP
350
D
  3
ACAD_IMAGE_VARS
350
2D2
  3
ACAD_LAYOUT
350
1A
  3
ACAD_MATERIAL
350
2F7
  3
ACAD_MLEADERSTYLE
350
32C
  3
ACAD_MLINESTYLE
350
17
  3
ACAD_PLOTSETTINGS
350
19
  3
ACAD_PLOTSTYLENAME
350
E
  3
ACAD_SCALELIST
350
298
  3
ACAD_SECTIONVIEWSTYLE
350
32E
  3
ACAD_TABLESTYLE
350
32A
  3
ACAD_VISUALSTYLE
350
310
  3
ACDB_RECOMPOSE_DATA
350
2C63
  3
AcDbVariableDictionary
350
2EC
  3
APPDATA
350
2D1
  0
DICTIONARY
  5
2D4
330
2
100
AcDbDictionary
280
     1
281
     1
  3
ACAD_LAYERSTATES
360
2D5
  3
ACLYDICTIONARY
360
2EB
  0
DICTIONARY
  5
355
330
10
100
AcDbDictionary
280
     1
281
     1
  3
ADSK_XREC_LAYER_RECONCILED
360
356
  0
DICTIONARY
  5
27C3
330
27C2
100
AcDbDictionary
280
     1
281
     1
  0
DICTIONARY
  5
EF1
330
1F
100
AcDbDictionary
280
     1
281
     1
  3
ACAD_ASSOCNETWORK
360
23D6
  3
ACAD_SORTENTS
360
EF2
  0
DICTIONARY
  5
24F0
330
24D6
100
AcDbDictionary
280
     1
281
     1
  3
ACAD_SORTENTS
360
24F1
  0
DICTIONARY
  5
252A
330
2527
100
AcDbDictionary
280
     1
281
     1
  3
ACAD_SORTENTS
360
252B
  0
DICTIONARY
  5
258F
330
258A
100
AcDbDictionary
280
     1
281
     1
  3
ACAD_ASSOCNETWORK
360
259D
  3
ACAD_SORTENTS
360
2590
  3
AcDbDynamicBlockRoundTripPurgePreventer
360
28C7
  0
DICTIONARY
  5
25C6
330
25C4
100
AcDbDictionary
280
     1
281
     1
  3
ACAD_ASSOCNETWORK
360
25D4
  3
ACAD_SORTENTS
360
25C7
  3
AcDbDynamicBlockRoundTripPurgePreventer
360
28C8
  0
DICTIONARY
  5
260C
330
2609
100
AcDbDictionary
280
     1
281
     1
  3
ACAD_SORTENTS
360
260D
  0
DICTIONARY
  5
23D8
102
{ACAD_REACTORS
330
C
102
}
330
C
100
AcDbDictionary
281
     1
  3
ACAD_ASSOCNETWORK
350
23D9
  0
XRECORD
  5
334
102
{ACAD_REACTORS
330
C
102
}
330
C
100
AcDbXrecord
280
     1
300
ACDLT
300
2013
300

  0
DICTIONARY
  5
329
102
{ACAD_REACTORS
330
C
102
}
330
C
100
AcDbDictionary
281
     1
  0
DICTIONARY
  5
330
102
{ACAD_REACTORS
330
C
102
}
330
C
100
AcDbDictionary
281
     1
  3
Metric50
350
331
  0
DICTIONARY
  5
D
102
{ACAD_REACTORS
330
C
102
}
330
C
100
AcDbDictionary
281
     1
  0
RASTERVARIABLES
  5
2D2
102
{ACAD_REACTORS
330
C
102
}
330
C
100
AcDbRasterVariables
 90
        0
 70
     1
 71
     1
 72
     1
  0
DICTIONARY
  5
1A
102
{ACAD_REACTORS
330
C
102
}
330
C
100
AcDbDictionary
281
     1
  3
Layout1
350
1E
  3
Layout2
350
26
  3
Model
350
22
  0
DICTIONARY
  5
2F7
102
{ACAD_REACTORS
330
C
102
}
330
C
100
AcDbDictionary
281
     1
  3
ByBlock
350
300
  3
ByLayer
350
2F8
  3
Global
350
308
  0
DICTIONARY
  5
32C
102
{ACAD_REACTORS
330
C
102
}
330
C
100
AcDbDictionary
281
     1
  3
Standard
350
32D
  0
DICTIONARY
  5
17
102
{ACAD_REACTORS
330
C
102
}
330
C
100
AcDbDictionary
281
     1
  3
Standard
350
18
  0
DICTIONARY
  5
19
102
{ACAD_REACTORS
330
C
102
}
330
C
100
AcDbDictionary
281
     1
  0
ACDBDICTIONARYWDFLT
  5
E
102
{ACAD_REACTORS
330
C
102
}
330
C
100
AcDbDictionary
281
     1
  3
Normal
350
F
100
AcDbDictionaryWithDefault
340
F
  0
DICTIONARY
  5
298
102
{ACAD_REACTORS
330
C
102
}
330
C
100
AcDbDictionary
281
     1
  3
A0
350
299
  3
A1
350
29A
  3
A2
350
29B
  3
A3
350
29C
  3
A4
350
29D
  3
A5
350
29E
  3
A6
350
29F
  3
A7
350
2A0
  3
A8
350
2A1
  3
A9
350
2A2
  3
B0
350
2A3
  3
B1
350
2A4
  3
B2
350
2A5
  3
B3
350
2A6
  3
B4
350
2A7
  3
B5
350
2A8
  3
B6
350
2A9
  3
B7
350
2AA
  3
B8
350
2AB
  3
B9
350
2AC
  3
C0
350
2AD
  3
C1
350
2AE
  3
C2
350
2AF
  3
C3
350
2B0
  3
C4
350
2B1
  3
C5
350
2B2
  3
C6
350
2B3
  3
C7
350
2B4
  3
C8
350
2B5
  3
C9
350
2B6
  3
D0
350
2B7
  3
D1
350
2B8
  3
D2
350
2B9
  0
DICTIONARY
  5
32E
102
{ACAD_REACTORS
330
C
102
}
330
C
100
AcDbDictionary
281
     1
  3
Metric50
350
32F
  0
DICTIONARY
  5
32A
102
{ACAD_REACTORS
330
C
102
}
330
C
100
AcDbDictionary
281
     1
  3
Standard
350
32B
  0
DICTIONARY
  5
310
102
{ACAD_REACTORS
330
C
102
}
330
C
100
AcDbDictionary
281
     1
  3
2dWireframe
350
316
  3
Basic
350
315
  3
Brighten
350
31C
  3
ColorChange
350
320
  3
Conceptual
350
319
  3
Dim
350
31B
  3
EdgeColorOff
350
328
  3
Facepattern
350
31F
  3
Flat
350
311
  3
FlatWithEdges
350
312
  3
Gouraud
350
313
  3
GouraudWithEdges
350
314
  3
Hidden
350
318
  3
JitterOff
350
326
  3
Linepattern
350
31E
  3
OverhangOff
350
327
  3
Realistic
350
31A
  3
Shaded
350
325
  3
Shaded with edges
350
324
  3
Shades of Gray
350
321
  3
Sketchy
350
322
  3
Thicken
350
31D
  3
Wireframe
350
317
  3
X-Ray
350
323
  0
XRECORD
  5
2C63
102
{ACAD_REACTORS
330
C
102
}
330
C
100
AcDbXrecord
280
     1
 90
        1
330
32B
  0
DICTIONARY
  5
2EC
102
{ACAD_REACTORS
330
C
102
}
330
C
100
AcDbDictionary
281
     1
  3
CANNOSCALE
350
2F4
  3
CMLEADERSTYLE
350
365
  3
CTABLESTYLE
350
364
  3
CVIEWDETAILSTYLE
350
366
  3
CVIEWSECTIONSTYLE
350
367
  3
LAYEREVAL
350
36A
  3
LAYERNOTIFY
350
36B
  3
LIGHTINGUNITS
350
369
  3
MSLTSCALE
350
368
  0
DICTIONARY
  5
2D1
102
{ACAD_REACTORS
330
C
102
}
330
C
100
AcDbDictionary
281
     1
  0
DICTIONARY
  5
2D5
102
{ACAD_REACTORS
330
2D4
102
}
330
2D4
100
AcDbDictionary
281
     1
  3
ARGON_LAYERP_1
350
2D6
  3
ARGON_LAYERP_2
350
2E7
  0
DICTIONARY
  5
2EB
102
{ACAD_REACTORS
330
2D4
102
}
330
2D4
100
AcDbDictionary
281
     1
1001
ACAD
1000
<All
  0
XRECORD
  5
356
102
{ACAD_REACTORS
330
355
102
}
330
355
100
AcDbXrecord
280
     1
290
     1
  0
DICTIONARY
  5
23D6
102
{ACAD_REACTORS
330
EF1
102
}
330
EF1
100
AcDbDictionary
281
     1
  3
ACAD_ASSOCNETWORK
350
23D7
  0
SORTENTSTABLE
  5
EF2
102
{ACAD_REACTORS
330
EF1
102
}
330
EF1
100
AcDbSortentsTable
330
1F
331
2329
  5
2329
331
232A
  5
232A
331
249B
  5
249B
331
247C
  5
247B
331
23CA
  5
23CA
331
24F4
  5
24F4
331
2324
  5
2324
331
2325
  5
2325
331
2326
  5
2326
331
2327
  5
2327
331
2328
  5
2328
331
2487
  5
247E
  0
SORTENTSTABLE
  5
24F1
102
{ACAD_REACTORS
330
24F0
102
}
330
24F0
100
AcDbSortentsTable
330
24D6
  0
SORTENTSTABLE
  5
252B
102
{ACAD_REACTORS
330
252A
102
}
330
252A
100
AcDbSortentsTable
330
2527
  0
DICTIONARY
  5
259D
102
{ACAD_REACTORS
330
258F
102
}
330
258F
100
AcDbDictionary
281
     1
  3
ACAD_ASSOCNETWORK
350
259E
  0
SORTENTSTABLE
  5
2590
102
{ACAD_REACTORS
330
258F
102
}
330
258F
100
AcDbSortentsTable
330
258A
  0
ACDB_DYNAMICBLOCKPURGEPREVENTER_VERSION
  5
28C7
102
{ACAD_REACTORS
330
258F
102
}
330
258F
100
AcDbDynamicBlockPurgePreventer
 70
     1
  0
DICTIONARY
  5
25D4
102
{ACAD_REACTORS
330
25C6
102
}
330
25C6
100
AcDbDictionary
281
     1
  3
ACAD_ASSOCNETWORK
350
25D5
  0
SORTENTSTABLE
  5
25C7
102
{ACAD_REACTORS
330
25C6
102
}
330
25C6
100
AcDbSortentsTable
330
25C4
  0
ACDB_DYNAMICBLOCKPURGEPREVENTER_VERSION
  5
28C8
102
{ACAD_REACTORS
330
25C6
102
}
330
25C6
100
AcDbDynamicBlockPurgePreventer
 70
     1
  0
SORTENTSTABLE
  5
260D
102
{ACAD_REACTORS
330
260C
102
}
330
260C
100
AcDbSortentsTable
330
2609
  0
ACDBASSOCNETWORK
  5
23D9
102
{ACAD_REACTORS
330
23D8
102
}
330
23D8
100
AcDbAssocAction
 90
        2
 90
        0
330
0
360
0
 90
        0
 90
        0
 90
        0
 90
        0
 90
        0
 90
        0
 90
        0
100
AcDbAssocNetwork
 90
        0
 90
        3
 90
        3
330
23D7
330
259E
330
25D5
 90
        0
  0
ACDBDETAILVIEWSTYLE
  5
331
102
{ACAD_REACTORS
330
330
102
}
330
330
100
AcDbModelDocViewStyle
 70
     0
  3
Metric50
290
     0
100
AcDbDetailViewStyle
 70
     0
 71
     0
 90
        3
 71
     1
340
11
 62
   256
 40
5.0
340
0
 62
   256
 40
5.0
300

 40
0.0
280
     1
 71
     2
340
16
 90
       25
 62
   256
 71
     3
340
11
 62
   256
 40
5.0
 90
        0
 40
15.0
 90
        1
300
%<\AcVar ViewDetailId>% (%<\AcVar ViewScale \f "%sn">%)
 71
     4
340
16
 90
       25
 62
   256
340
16
 90
       25
 62
   256
280
     0
  0
LAYOUT
  5
1E
102
{ACAD_REACTORS
330
1A
102
}
330
1A
100
AcDbPlotSettings
  1

  2
none_device
  4

  6

 40
0.0
 41
0.0
 42
0.0
 43
0.0
 44
0.0
 45
0.0
 46
0.0
 47
0.0
 48
0.0
 49
0.0
140
0.0
141
0.0
142
1.0
143
1.0
 70
   688
 72
     0
 73
     0
 74
     5
  7

 75
    16
147
1.0
 76
     0
 77
     2
 78
   300
148
0.0
149
0.0
100
AcDbLayout
  1
Layout1
 70
     1
 71
     1
 10
0.0
 20
0.0
 11
0.0
 21
0.0
 12
0.0
 22
0.0
 32
0.0
 14
1.000000000000000E+20
 24
1.000000000000000E+20
 34
1.000000000000000E+20
 15
-1.000000000000000E+20
 25
-1.000000000000000E+20
 35
-1.000000000000000E+20
146
0.0
 13
0.0
 23
0.0
 33
0.0
 16
1.0
 26
0.0
 36
0.0
 17
0.0
 27
1.0
 37
0.0
 76
     0
330
1B
  0
LAYOUT
  5
26
102
{ACAD_REACTORS
330
1A
102
}
330
1A
100
AcDbPlotSettings
  1

  2
none_device
  4

  6

 40
0.0
 41
0.0
 42
0.0
 43
0.0
 44
0.0
 45
0.0
 46
0.0
 47
0.0
 48
0.0
 49
0.0
140
0.0
141
0.0
142
1.0
143
1.0
 70
   688
 72
     0
 73
     0
 74
     5
  7

 75
    16
147
1.0
 76
     0
 77
     2
 78
   300
148
0.0
149
0.0
100
AcDbLayout
  1
Layout2
 70
     1
 71
     2
 10
0.0
 20
0.0
 11
0.0
 21
0.0
 12
0.0
 22
0.0
 32
0.0
 14
0.0
 24
0.0
 34
0.0
 15
0.0
 25
0.0
 35
0.0
146
0.0
 13
0.0
 23
0.0
 33
0.0
 16
1.0
 26
0.0
 36
0.0
 17
0.0
 27
1.0
 37
0.0
 76
     0
330
23
  0
LAYOUT
  5
22
102
{ACAD_REACTORS
330
1A
102
}
330
1A
100
AcDbPlotSettings
  1

  2
BroadGun pdfMachine
  4
A3
  6

 40
3.174999952316284
 41
3.174999952316284
 42
3.17498779296875
 43
3.17498779296875
 44
296.9683227539062
 45
419.9889831542968
 46
49.55106492186526
 47
0.0
 48
0.0
 49
0.0
140
0.0
141
0.0
142
1.0
143
2.011561582516616
 70
 11956
 72
     1
 73
     1
 74
     0
  7

 75
     0
147
0.4971262171098556
 76
     0
 77
     2
 78
   300
148
296.4867119250612
149
106.5425786369573
100
AcDbLayout
  1
Model
 70
     1
 71
     0
 10
0.0
 20
0.0
 11
420.0
 21
297.0
 12
0.0
 22
0.0
 32
0.0
 14
0.0
 24
0.0
 34
0.0
 15
420.0
 25
297.0
 35
0.0
146
0.0
 13
0.0
 23
0.0
 33
0.0
 16
1.0
 26
0.0
 36
0.0
 17
0.0
 27
1.0
 37
0.0
 76
     0
330
1F
331
29
1001
ACAD_PSEXT
1000
BroadGun pdfMachine
1000
BroadGun pdfMachine
1000
PDFPORT1:
1000

1070
     0
  0
MATERIAL
  5
300
102
{ACAD_XDICTIONARY
360
301
102
}
102
{ACAD_REACTORS
330
2F7
102
}
330
2F7
100
AcDbMaterial
  1
ByBlock
 72
     0
 43
0.0008202099737533
 43
0.0
 43
0.0
 43
0.0
 43
0.0
 43
0.0008202099737533
 43
0.0
 43
0.0
 43
0.0
 43
0.0
 43
1.0
 43
0.0
 43
0.0
 43
0.0
 43
0.0
 43
1.0
 77
     0
 47
0.0008202099737533
 47
0.0
 47
0.0
 47
0.0
 47
0.0
 47
0.0008202099737533
 47
0.0
 47
0.0
 47
0.0
 47
0.0
 47
1.0
 47
0.0
 47
0.0
 47
0.0
 47
0.0
 47
1.0
171
     0
 49
0.0008202099737533
 49
0.0
 49
0.0
 49
0.0
 49
0.0
 49
0.0008202099737533
 49
0.0
 49
0.0
 49
0.0
 49
0.0
 49
1.0
 49
0.0
 49
0.0
 49
0.0
 49
0.0
 49
1.0
175
     0
142
0.0008202099737533
142
0.0
142
0.0
142
0.0
142
0.0
142
0.0008202099737533
142
0.0
142
0.0
142
0.0
142
0.0
142
1.0
142
0.0
142
0.0
142
0.0
142
0.0
142
1.0
179
     0
144
0.0008202099737533
144
0.0
144
0.0
144
0.0
144
0.0
144
0.0008202099737533
144
0.0
144
0.0
144
0.0
144
0.0
144
1.0
144
0.0
144
0.0
144
0.0
144
0.0
144
1.0
147
0.0008202099737533
147
0.0
147
0.0
147
0.0
147
0.0
147
0.0008202099737533
147
0.0
147
0.0
147
0.0
147
0.0
147
1.0
147
0.0
147
0.0
147
0.0
147
0.0
147
1.0
  0
MATERIAL
  5
2F8
102
{ACAD_XDICTIONARY
360
2F9
102
}
102
{ACAD_REACTORS
330
2F7
102
}
330
2F7
100
AcDbMaterial
  1
ByLayer
 72
     0
 43
0.0008202099737533
 43
0.0
 43
0.0
 43
0.0
 43
0.0
 43
0.0008202099737533
 43
0.0
 43
0.0
 43
0.0
 43
0.0
 43
1.0
 43
0.0
 43
0.0
 43
0.0
 43
0.0
 43
1.0
 77
     0
 47
0.0008202099737533
 47
0.0
 47
0.0
 47
0.0
 47
0.0
 47
0.0008202099737533
 47
0.0
 47
0.0
 47
0.0
 47
0.0
 47
1.0
 47
0.0
 47
0.0
 47
0.0
 47
0.0
 47
1.0
171
     0
 49
0.0008202099737533
 49
0.0
 49
0.0
 49
0.0
 49
0.0
 49
0.0008202099737533
 49
0.0
 49
0.0
 49
0.0
 49
0.0
 49
1.0
 49
0.0
 49
0.0
 49
0.0
 49
0.0
 49
1.0
175
     0
142
0.0008202099737533
142
0.0
142
0.0
142
0.0
142
0.0
142
0.0008202099737533
142
0.0
142
0.0
142
0.0
142
0.0
142
1.0
142
0.0
142
0.0
142
0.0
142
0.0
142
1.0
179
     0
144
0.0008202099737533
144
0.0
144
0.0
144
0.0
144
0.0
144
0.0008202099737533
144
0.0
144
0.0
144
0.0
144
0.0
144
1.0
144
0.0
144
0.0
144
0.0
144
0.0
144
1.0
147
0.0008202099737533
147
0.0
147
0.0
147
0.0
147
0.0
147
0.0008202099737533
147
0.0
147
0.0
147
0.0
147
0.0
147
1.0
147
0.0
147
0.0
147
0.0
147
0.0
147
1.0
  0
MATERIAL
  5
308
102
{ACAD_XDICTIONARY
360
309
102
}
102
{ACAD_REACTORS
330
2F7
102
}
330
2F7
100
AcDbMaterial
  1
Global
 72
     0
 43
0.0008202099737533
 43
0.0
 43
0.0
 43
0.0
 43
0.0
 43
0.0008202099737533
 43
0.0
 43
0.0
 43
0.0
 43
0.0
 43
1.0
 43
0.0
 43
0.0
 43
0.0
 43
0.0
 43
1.0
 77
     0
 47
0.0008202099737533
 47
0.0
 47
0.0
 47
0.0
 47
0.0
 47
0.0008202099737533
 47
0.0
 47
0.0
 47
0.0
 47
0.0
 47
1.0
 47
0.0
 47
0.0
 47
0.0
 47
0.0
 47
1.0
171
     0
 49
0.0008202099737533
 49
0.0
 49
0.0
 49
0.0
 49
0.0
 49
0.0008202099737533
 49
0.0
 49
0.0
 49
0.0
 49
0.0
 49
1.0
 49
0.0
 49
0.0
 49
0.0
 49
0.0
 49
1.0
175
     0
142
0.0008202099737533
142
0.0
142
0.0
142
0.0
142
0.0
142
0.0008202099737533
142
0.0
142
0.0
142
0.0
142
0.0
142
1.0
142
0.0
142
0.0
142
0.0
142
0.0
142
1.0
179
     0
144
0.0008202099737533
144
0.0
144
0.0
144
0.0
144
0.0
144
0.0008202099737533
144
0.0
144
0.0
144
0.0
144
0.0
144
1.0
144
0.0
144
0.0
144
0.0
144
0.0
144
1.0
147
0.0008202099737533
147
0.0
147
0.0
147
0.0
147
0.0
147
0.0008202099737533
147
0.0
147
0.0
147
0.0
147
0.0
147
1.0
147
0.0
147
0.0
147
0.0
147
0.0
147
1.0
  0
MLEADERSTYLE
  5
32D
102
{ACAD_REACTORS
330
32C
102
}
330
32C
100
AcDbMLeaderStyle
179
     2
170
     2
171
     1
172
     0
 90
        2
 40
0.0
 41
0.0
173
     1
 91
-1056964608
340
14
 92
       -2
290
     1
 42
2.0
291
     1
 43
0.36
  3
Standard
 44
4.0
300

342
11
174
     1
178
     6
175
     1
176
     0
 93
-1056964608
 45
4.0
292
     0
297
     0
 46
4.0
 94
-1056964608
 47
1.0
 49
1.0
140
1.0
293
     1
141
0.0
294
     1
177
     0
142
1.0
295
     0
296
     0
143
0.125
271
     0
272
     9
273
     9
298
     0
  0
MLINESTYLE
  5
18
102
{ACAD_REACTORS
330
17
102
}
330
17
100
AcDbMlineStyle
  2
STANDARD
 70
     0
  3

 62
   256
 51
90.0
 52
90.0
 71
     2
 49
0.5
 62
   256
  6
BYLAYER
 49
-0.5
 62
   256
  6
BYLAYER
  0
ACDBPLACEHOLDER
  5
F
102
{ACAD_REACTORS
330
E
102
}
330
E
  0
SCALE
  5
299
102
{ACAD_REACTORS
330
298
102
}
330
298
100
AcDbScale
 70
     0
300
1:1
140
1.0
141
1.0
290
     1
  0
SCALE
  5
29A
102
{ACAD_REACTORS
330
298
102
}
330
298
100
AcDbScale
 70
     0
300
1:2
140
1.0
141
2.0
290
     0
  0
SCALE
  5
29B
102
{ACAD_REACTORS
330
298
102
}
330
298
100
AcDbScale
 70
     0
300
1:4
140
1.0
141
4.0
290
     0
  0
SCALE
  5
29C
102
{ACAD_REACTORS
330
298
102
}
330
298
100
AcDbScale
 70
     0
300
1:5
140
1.0
141
5.0
290
     0
  0
SCALE
  5
29D
102
{ACAD_REACTORS
330
298
102
}
330
298
100
AcDbScale
 70
     0
300
1:8
140
1.0
141
8.0
290
     0
  0
SCALE
  5
29E
102
{ACAD_REACTORS
330
298
102
}
330
298
100
AcDbScale
 70
     0
300
1:10
140
1.0
141
10.0
290
     0
  0
SCALE
  5
29F
102
{ACAD_REACTORS
330
298
102
}
330
298
100
AcDbScale
 70
     0
300
1:16
140
1.0
141
16.0
290
     0
  0
SCALE
  5
2A0
102
{ACAD_REACTORS
330
298
102
}
330
298
100
AcDbScale
 70
     0
300
1:20
140
1.0
141
20.0
290
     0
  0
SCALE
  5
2A1
102
{ACAD_REACTORS
330
298
102
}
330
298
100
AcDbScale
 70
     0
300
1:30
140
1.0
141
30.0
290
     0
  0
SCALE
  5
2A2
102
{ACAD_REACTORS
330
298
102
}
330
298
100
AcDbScale
 70
     0
300
1:40
140
1.0
141
40.0
290
     0
  0
SCALE
  5
2A3
102
{ACAD_REACTORS
330
298
102
}
330
298
100
AcDbScale
 70
     0
300
1:50
140
1.0
141
50.0
290
     0
  0
SCALE
  5
2A4
102
{ACAD_REACTORS
330
298
102
}
330
298
100
AcDbScale
 70
     0
300
1:100
140
1.0
141
100.0
290
     0
  0
SCALE
  5
2A5
102
{ACAD_REACTORS
330
298
102
}
330
298
100
AcDbScale
 70
     0
300
2:1
140
2.0
141
1.0
290
     0
  0
SCALE
  5
2A6
102
{ACAD_REACTORS
330
298
102
}
330
298
100
AcDbScale
 70
     0
300
4:1
140
4.0
141
1.0
290
     0
  0
SCALE
  5
2A7
102
{ACAD_REACTORS
330
298
102
}
330
298
100
AcDbScale
 70
     0
300
8:1
140
8.0
141
1.0
290
     0
  0
SCALE
  5
2A8
102
{ACAD_REACTORS
330
298
102
}
330
298
100
AcDbScale
 70
     0
300
10:1
140
10.0
141
1.0
290
     0
  0
SCALE
  5
2A9
102
{ACAD_REACTORS
330
298
102
}
330
298
100
AcDbScale
 70
     0
300
100:1
140
100.0
141
1.0
290
     0
  0
SCALE
  5
2AA
102
{ACAD_REACTORS
330
298
102
}
330
298
100
AcDbScale
 70
     0
300
1/128" = 1'-0"
140
0.0078125
141
12.0
290
     0
  0
SCALE
  5
2AB
102
{ACAD_REACTORS
330
298
102
}
330
298
100
AcDbScale
 70
     0
300
1/64" = 1'-0"
140
0.015625
141
12.0
290
     0
  0
SCALE
  5
2AC
102
{ACAD_REACTORS
330
298
102
}
330
298
100
AcDbScale
 70
     0
300
1/32" = 1'-0"
140
0.03125
141
12.0
290
     0
  0
SCALE
  5
2AD
102
{ACAD_REACTORS
330
298
102
}
330
298
100
AcDbScale
 70
     0
300
1/16" = 1'-0"
140
0.0625
141
12.0
290
     0
  0
SCALE
  5
2AE
102
{ACAD_REACTORS
330
298
102
}
330
298
100
AcDbScale
 70
     0
300
3/32" = 1'-0"
140
0.09375
141
12.0
290
     0
  0
SCALE
  5
2AF
102
{ACAD_REACTORS
330
298
102
}
330
298
100
AcDbScale
 70
     0
300
1/8" = 1'-0"
140
0.125
141
12.0
290
     0
  0
SCALE
  5
2B0
102
{ACAD_REACTORS
330
298
102
}
330
298
100
AcDbScale
 70
     0
300
3/16" = 1'-0"
140
0.1875
141
12.0
290
     0
  0
SCALE
  5
2B1
102
{ACAD_REACTORS
330
298
102
}
330
298
100
AcDbScale
 70
     0
300
1/4" = 1'-0"
140
0.25
141
12.0
290
     0
  0
SCALE
  5
2B2
102
{ACAD_REACTORS
330
298
102
}
330
298
100
AcDbScale
 70
     0
300
3/8" = 1'-0"
140
0.375
141
12.0
290
     0
  0
SCALE
  5
2B3
102
{ACAD_REACTORS
330
298
102
}
330
298
100
AcDbScale
 70
     0
300
1/2" = 1'-0"
140
0.5
141
12.0
290
     0
  0
SCALE
  5
2B4
102
{ACAD_REACTORS
330
298
102
}
330
298
100
AcDbScale
 70
     0
300
3/4" = 1'-0"
140
0.75
141
12.0
290
     0
  0
SCALE
  5
2B5
102
{ACAD_REACTORS
330
298
102
}
330
298
100
AcDbScale
 70
     0
300
1" = 1'-0"
140
1.0
141
12.0
290
     0
  0
SCALE
  5
2B6
102
{ACAD_REACTORS
330
298
102
}
330
298
100
AcDbScale
 70
     0
300
1-1/2" = 1'-0"
140
1.5
141
12.0
290
     0
  0
SCALE
  5
2B7
102
{ACAD_REACTORS
330
298
102
}
330
298
100
AcDbScale
 70
     0
300
3" = 1'-0"
140
3.0
141
12.0
290
     0
  0
SCALE
  5
2B8
102
{ACAD_REACTORS
330
298
102
}
330
298
100
AcDbScale
 70
     0
300
6" = 1'-0"
140
6.0
141
12.0
290
     0
  0
SCALE
  5
2B9
102
{ACAD_REACTORS
330
298
102
}
330
298
100
AcDbScale
 70
     0
300
1'-0" = 1'-0"
140
12.0
141
12.0
290
     0
  0
ACDBSECTIONVIEWSTYLE
  5
32F
102
{ACAD_REACTORS
330
32E
102
}
330
32E
100
AcDbModelDocViewStyle
 70
     0
  3
Metric50
290
     0
100
AcDbSectionViewStyle
 70
     0
 71
     0
 90
      102
 71
     1
340
11
 62
   256
 40
5.0
340
0
340
0
 62
   256
 40
5.0
300
I, O, Q, S, X, Z
 40
10.0
 90
        0
 40
2.5
 90
        0
 71
     2
340
16
 90
       25
 62
   256
340
16
 90
       50
 62
   256
 40
5.0
 40
2.5
 40
5.0
 71
     3
340
11
 62
   256
 40
5.0
 90
        0
 40
15.0
 90
        1
300
%<\AcVar ViewSectionStartId>%-%<\AcVar ViewSectionEndId>% (%<\AcVar ViewScale \f "%sn">%)
 71
     4
 62
   256
 62
   257
300
ANSI31
 40
1.0
 90
        0
290
     0
290
     0
 90
        6
 40
0.0
 40
1.570796326794896
 40
0.2617993877991494
 40
1.308996938995747
 40
-0.2617993877991494
 40
1.832595714594045
  0
TABLESTYLE
  5
32B
102
{ACAD_XDICTIONARY
360
36C
102
}
102
{ACAD_REACTORS
330
32A
102
}
330
32A
100
AcDbTableStyle
280
     0
  3
Standard
 70
     0
 71
     0
 40
1.5
 41
1.5
280
     0
281
     0
  7
Standard
140
4.5
170
     2
 62
     0
 63
     7
283
     0
 90
      512
 91
        0
  1

274
    -2
284
     1
 64
     0
275
    -2
285
     1
 65
     0
276
    -2
286
     1
 66
     0
277
    -2
287
     1
 67
     0
278
    -2
288
     1
 68
     0
279
    -2
289
     1
 69
     0
  7
Standard
140
6.0
170
     5
 62
     0
 63
     7
283
     0
 90
      512
 91
        0
  1

274
    -2
284
     1
 64
     0
275
    -2
285
     1
 65
     0
276
    -2
286
     1
 66
     0
277
    -2
287
     1
 67
     0
278
    -2
288
     1
 68
     0
279
    -2
289
     1
 69
     0
  7
Standard
140
4.5
170
     5
 62
     0
 63
     7
283
     0
 90
      512
 91
        0
  1

274
    -2
284
     1
 64
     0
275
    -2
285
     1
 65
     0
276
    -2
286
     1
 66
     0
277
    -2
287
     1
 67
     0
278
    -2
288
     1
 68
     0
279
    -2
289
     1
 69
     0
  0
VISUALSTYLE
  5
316
102
{ACAD_REACTORS
330
310
102
}
330
310
100
AcDbVisualStyle
  2
2dWireframe
 70
     4
177
     3
291
     0
 70
    58
 90
        0
176
     1
 90
        2
176
     1
 90
        0
176
     1
 90
        0
176
     1
 40
0.6
176
     1
 40
30.0
176
     1
 62
     7
420
 16777215
176
     1
 90
        1
176
     1
 90
        4
176
     1
 62
     7
176
     1
 62
   257
176
     1
 90
        1
176
     1
 90
        1
176
     1
 40
1.0
176
     1
 90
        0
176
     1
 62
   257
176
     1
 40
1.0
176
     1
 90
        1
176
     1
 90
        6
176
     1
 90
        2
176
     1
 62
     7
176
     1
 90
        5
176
     1
 90
        0
176
     1
 90
        0
176
     1
290
     0
176
     1
 90
        1
176
     1
 40
0.0
176
     1
 90
        0
176
     1
290
     1
176
     1
290
     1
176
     1
290
     0
176
     1
290
     0
176
     1
290
     0
176
     1
290
     0
176
     1
290
     0
176
     1
290
     0
176
     1
290
     0
176
     1
 90
       50
176
     1
 40
0.0
176
     1
 40
1.0
176
     1
 90
        0
176
     1
 62
    18
176
     1
 90
       50
176
     1
 90
        3
176
     1
 62
     5
420
      255
176
     1
290
     0
176
     1
 90
       50
176
     1
 90
       50
176
     1
 90
       50
176
     1
290
     0
176
     1
 90
       50
176
     1
 62
   256
176
     0
 40
1.0
176
     0
 90
        2
176
     1
  1
strokes_ogs.tif
176
     1
290
     0
176
     1
 40
1.0
176
     1
 40
1.0
176
     1
  0
VISUALSTYLE
  5
315
102
{ACAD_REACTORS
330
310
102
}
330
310
100
AcDbVisualStyle
  2
Basic
 70
     7
177
     3
291
     1
 70
    58
 90
        1
176
     1
 90
        0
176
     1
 90
        1
176
     1
 90
        0
176
     1
 40
0.6
176
     1
 40
30.0
176
     1
 62
     7
420
 16777215
176
     1
 90
        0
176
     1
 90
        4
176
     1
 62
     7
176
     1
 62
   257
176
     1
 90
        1
176
     1
 90
        1
176
     1
 40
1.0
176
     1
 90
        8
176
     1
 62
     7
176
     1
 40
1.0
176
     1
 90
        1
176
     1
 90
        6
176
     1
 90
        2
176
     1
 62
     7
176
     1
 90
        5
176
     1
 90
        0
176
     1
 90
        0
176
     1
290
     0
176
     1
 90
        1
176
     1
 40
0.0
176
     1
 90
        0
176
     1
290
     0
176
     1
290
     1
176
     1
290
     1
176
     1
290
     0
176
     1
290
     0
176
     1
290
     0
176
     1
290
     0
176
     1
290
     0
176
     1
290
     0
176
     1
 90
       50
176
     1
 40
0.0
176
     1
 40
1.0
176
     1
 90
        0
176
     1
 62
    18
176
     1
 90
       50
176
     1
 90
        3
176
     1
 62
     5
420
      255
176
     1
290
     0
176
     1
 90
       50
176
     1
 90
       50
176
     1
 90
       50
176
     1
290
     0
176
     1
 90
       50
176
     1
 62
   256
176
     0
 40
1.0
176
     0
 90
        2
176
     1
  1
strokes_ogs.tif
176
     1
290
     0
176
     1
 40
1.0
176
     1
 40
1.0
176
     1
  0
VISUALSTYLE
  5
31C
102
{ACAD_REACTORS
330
310
102
}
330
310
100
AcDbVisualStyle
  2
Brighten
 70
    12
177
     3
291
     1
 70
    58
 90
        2
176
     1
 90
        2
176
     1
 90
        0
176
     1
 90
        0
176
     1
 40
0.6
176
     1
 40
30.0
176
     1
 62
     7
420
 16777215
176
     1
 90
        1
176
     1
 90
        4
176
     1
 62
     7
176
     1
 62
   257
176
     1
 90
        1
176
     1
 90
        1
176
     1
 40
1.0
176
     1
 90
        8
176
     1
 62
     7
176
     1
 40
1.0
176
     1
 90
        1
176
     1
 90
        6
176
     1
 90
        2
176
     1
 62
     7
176
     1
 90
        5
176
     1
 90
        0
176
     1
 90
        0
176
     1
290
     0
176
     1
 90
        1
176
     1
 40
50.0
176
     1
 90
        0
176
     1
290
     0
176
     1
290
     1
176
     1
290
     1
176
     1
290
     0
176
     1
290
     0
176
     1
290
     0
176
     1
290
     0
176
     1
290
     0
176
     1
290
     0
176
     1
 90
       50
176
     1
 40
0.0
176
     1
 40
1.0
176
     1
 90
        0
176
     1
 62
    18
176
     1
 90
       50
176
     1
 90
        3
176
     1
 62
     5
420
      255
176
     1
290
     0
176
     1
 90
       50
176
     1
 90
       50
176
     1
 90
       50
176
     1
290
     0
176
     1
 90
       50
176
     1
 62
   256
176
     0
 40
1.0
176
     0
 90
        2
176
     1
  1
strokes_ogs.tif
176
     1
290
     0
176
     1
 40
1.0
176
     1
 40
1.0
176
     1
  0
VISUALSTYLE
  5
320
102
{ACAD_REACTORS
330
310
102
}
330
310
100
AcDbVisualStyle
  2
ColorChange
 70
    16
177
     3
291
     1
 70
    58
 90
        2
176
     1
 90
        2
176
     1
 90
        3
176
     1
 90
        0
176
     1
 40
0.6
176
     1
 40
30.0
176
     1
 62
     8
420
  8421504
176
     1
 90
        1
176
     1
 90
        4
176
     1
 62
     7
176
     1
 62
   257
176
     1
 90
        1
176
     1
 90
        1
176
     1
 40
1.0
176
     1
 90
        8
176
     1
 62
     8
420
  8421504
176
     1
 40
1.0
176
     1
 90
        1
176
     1
 90
        6
176
     1
 90
        2
176
     1
 62
     7
176
     1
 90
        5
176
     1
 90
        0
176
     1
 90
        0
176
     1
290
     0
176
     1
 90
        1
176
     1
 40
0.0
176
     1
 90
        0
176
     1
290
     0
176
     1
290
     1
176
     1
290
     1
176
     1
290
     0
176
     1
290
     0
176
     1
290
     0
176
     1
290
     0
176
     1
290
     0
176
     1
290
     0
176
     1
 90
       50
176
     1
 40
0.0
176
     1
 40
1.0
176
     1
 90
        0
176
     1
 62
    18
176
     1
 90
       50
176
     1
 90
        3
176
     1
 62
     5
420
      255
176
     1
290
     0
176
     1
 90
       50
176
     1
 90
       50
176
     1
 90
       50
176
     1
290
     0
176
     1
 90
       50
176
     1
 62
   256
176
     0
 40
1.0
176
     0
 90
        2
176
     1
  1
strokes_ogs.tif
176
     1
290
     0
176
     1
 40
1.0
176
     1
 40
1.0
176
     1
  0
VISUALSTYLE
  5
319
102
{ACAD_REACTORS
330
310
102
}
330
310
100
AcDbVisualStyle
  2
Conceptual
 70
     9
177
     3
291
     0
 70
    58
 90
        3
176
     1
 90
        2
176
     1
 90
        0
176
     1
 90
        0
176
     1
 40
0.6
176
     1
 40
30.0
176
     1
 62
     7
420
 16777215
176
     1
 90
        2
176
     1
 90
        2
176
     1
 62
     7
176
     1
 62
   257
176
     1
 90
        1
176
     1
 90
        1
176
     1
 40
179.0
176
     1
 90
        8
176
     1
 62
     7
176
     1
 40
1.0
176
     1
 90
        1
176
     1
 90
        6
176
     1
 90
        2
176
     1
 62
     7
176
     1
 90
        3
176
     1
 90
        0
176
     1
 90
        0
176
     1
290
     0
176
     1
 90
        1
176
     1
 40
0.0
176
     1
 90
        0
176
     1
290
     0
176
     1
290
     1
176
     1
290
     1
176
     1
290
     0
176
     1
290
     0
176
     1
290
     0
176
     1
290
     0
176
     1
290
     0
176
     1
290
     0
176
     1
 90
       50
176
     1
 40
0.0
176
     1
 40
1.0
176
     1
 90
        0
176
     1
 62
    18
176
     1
 90
       50
176
     1
 90
        3
176
     1
 62
     5
420
      255
176
     1
290
     0
176
     1
 90
       50
176
     1
 90
       50
176
     1
 90
       50
176
     1
290
     0
176
     1
 90
       50
176
     1
 62
   256
176
     0
 40
1.0
176
     0
 90
        2
176
     1
  1
strokes_ogs.tif
176
     1
290
     0
176
     1
 40
1.0
176
     1
 40
1.0
176
     1
  0
VISUALSTYLE
  5
31B
102
{ACAD_REACTORS
330
310
102
}
330
310
100
AcDbVisualStyle
  2
Dim
 70
    11
177
     3
291
     1
 70
    58
 90
        2
176
     1
 90
        2
176
     1
 90
        0
176
     1
 90
        0
176
     1
 40
0.6
176
     1
 40
30.0
176
     1
 62
     7
420
 16777215
176
     1
 90
        1
176
     1
 90
        4
176
     1
 62
     7
176
     1
 62
   257
176
     1
 90
        1
176
     1
 90
        1
176
     1
 40
1.0
176
     1
 90
        8
176
     1
 62
     7
176
     1
 40
1.0
176
     1
 90
        1
176
     1
 90
        6
176
     1
 90
        2
176
     1
 62
     7
176
     1
 90
        5
176
     1
 90
        0
176
     1
 90
        0
176
     1
290
     0
176
     1
 90
        1
176
     1
 40
-50.0
176
     1
 90
        0
176
     1
290
     0
176
     1
290
     1
176
     1
290
     1
176
     1
290
     0
176
     1
290
     0
176
     1
290
     0
176
     1
290
     0
176
     1
290
     0
176
     1
290
     0
176
     1
 90
       50
176
     1
 40
0.0
176
     1
 40
1.0
176
     1
 90
        0
176
     1
 62
    18
176
     1
 90
       50
176
     1
 90
        3
176
     1
 62
     5
420
      255
176
     1
290
     0
176
     1
 90
       50
176
     1
 90
       50
176
     1
 90
       50
176
     1
290
     0
176
     1
 90
       50
176
     1
 62
   256
176
     0
 40
1.0
176
     0
 90
        2
176
     1
  1
strokes_ogs.tif
176
     1
290
     0
176
     1
 40
1.0
176
     1
 40
1.0
176
     1
  0
VISUALSTYLE
  5
328
102
{ACAD_REACTORS
330
310
102
}
330
310
100
AcDbVisualStyle
  2
EdgeColorOff
 70
    22
177
     3
291
     1
 70
    58
 90
        2
176
     0
 90
        2
176
     0
 90
        0
176
     0
 90
        0
176
     0
 40
0.6
176
     0
 40
30.0
176
     0
 62
     7
420
 16777215
176
     0
 90
        1
176
     0
 90
        4
176
     0
 62
     7
176
     0
 62
   257
176
     0
 90
        1
176
     0
 90
        1
176
     0
 40
1.0
176
     0
 90
        8
176
     2
 62
     7
176
     0
 40
1.0
176
     0
 90
        1
176
     0
 90
        6
176
     0
 90
        2
176
     0
 62
     7
176
     0
 90
        5
176
     0
 90
        0
176
     0
 90
        0
176
     0
290
     0
176
     0
 90
        1
176
     0
 40
0.0
176
     0
 90
        0
176
     0
290
     0
176
     1
290
     1
176
     1
290
     1
176
     1
290
     0
176
     1
290
     0
176
     1
290
     0
176
     1
290
     0
176
     1
290
     0
176
     1
290
     0
176
     1
 90
       50
176
     0
 40
0.0
176
     0
 40
1.0
176
     0
 90
        0
176
     0
 62
    18
176
     0
 90
       50
176
     0
 90
        3
176
     0
 62
     5
420
      255
176
     0
290
     0
176
     1
 90
       50
176
     0
 90
       50
176
     0
 90
       50
176
     0
290
     0
176
     1
 90
       50
176
     0
 62
   256
176
     0
 40
1.0
176
     0
 90
        2
176
     0
  1
strokes_ogs.tif
176
     0
290
     0
176
     1
 40
1.0
176
     0
 40
1.0
176
     0
  0
VISUALSTYLE
  5
31F
102
{ACAD_REACTORS
330
310
102
}
330
310
100
AcDbVisualStyle
  2
Facepattern
 70
    15
177
     3
291
     1
 70
    58
 90
        2
176
     1
 90
        2
176
     1
 90
        0
176
     1
 90
        0
176
     1
 40
0.6
176
     1
 40
30.0
176
     1
 62
     7
420
 16777215
176
     1
 90
        1
176
     1
 90
        4
176
     1
 62
     7
176
     1
 62
   257
176
     1
 90
        1
176
     1
 90
        1
176
     1
 40
1.0
176
     1
 90
        8
176
     1
 62
     7
176
     1
 40
1.0
176
     1
 90
        1
176
     1
 90
        6
176
     1
 90
        2
176
     1
 62
     7
176
     1
 90
        5
176
     1
 90
        0
176
     1
 90
        0
176
     1
290
     0
176
     1
 90
        1
176
     1
 40
0.0
176
     1
 90
        0
176
     1
290
     0
176
     1
290
     1
176
     1
290
     1
176
     1
290
     0
176
     1
290
     0
176
     1
290
     0
176
     1
290
     0
176
     1
290
     0
176
     1
290
     0
176
     1
 90
       50
176
     1
 40
0.0
176
     1
 40
1.0
176
     1
 90
        0
176
     1
 62
    18
176
     1
 90
       50
176
     1
 90
        3
176
     1
 62
     5
420
      255
176
     1
290
     0
176
     1
 90
       50
176
     1
 90
       50
176
     1
 90
       50
176
     1
290
     0
176
     1
 90
       50
176
     1
 62
   256
176
     0
 40
1.0
176
     0
 90
        2
176
     1
  1
strokes_ogs.tif
176
     1
290
     0
176
     1
 40
1.0
176
     1
 40
1.0
176
     1
  0
VISUALSTYLE
  5
311
102
{ACAD_REACTORS
330
310
102
}
330
310
100
AcDbVisualStyle
  2
Flat
 70
     0
177
     3
291
     1
 70
    58
 90
        2
176
     1
 90
        1
176
     1
 90
        1
176
     1
 90
        2
176
     1
 40
0.6
176
     1
 40
30.0
176
     1
 62
     7
420
 16777215
176
     1
 90
        0
176
     1
 90
        0
176
     1
 62
     7
176
     1
 62
   257
176
     1
 90
        1
176
     1
 90
        1
176
     1
 40
1.0
176
     1
 90
        8
176
     1
 62
     7
176
     1
 40
1.0
176
     1
 90
        1
176
     1
 90
        6
176
     1
 90
        2
176
     1
 62
     7
176
     1
 90
        5
176
     1
 90
        0
176
     1
 90
        0
176
     1
290
     0
176
     1
 90
       13
176
     1
 40
0.0
176
     1
 90
        0
176
     1
290
     0
176
     1
290
     1
176
     1
290
     1
176
     1
290
     0
176
     1
290
     0
176
     1
290
     0
176
     1
290
     0
176
     1
290
     0
176
     1
290
     0
176
     1
 90
       50
176
     1
 40
0.0
176
     1
 40
1.0
176
     1
 90
        0
176
     1
 62
    18
176
     1
 90
       50
176
     1
 90
        3
176
     1
 62
     5
420
      255
176
     1
290
     0
176
     1
 90
       50
176
     1
 90
       50
176
     1
 90
       50
176
     1
290
     0
176
     1
 90
       50
176
     1
 62
   256
176
     0
 40
1.0
176
     0
 90
        2
176
     1
  1
strokes_ogs.tif
176
     1
290
     0
176
     1
 40
1.0
176
     1
 40
1.0
176
     1
  0
VISUALSTYLE
  5
312
102
{ACAD_REACTORS
330
310
102
}
330
310
100
AcDbVisualStyle
  2
FlatWithEdges
 70
     1
177
     3
291
     1
 70
    58
 90
        2
176
     1
 90
        1
176
     1
 90
        1
176
     1
 90
        2
176
     1
 40
0.6
176
     1
 40
30.0
176
     1
 62
     7
420
 16777215
176
     1
 90
        1
176
     1
 90
        0
176
     1
 62
     7
176
     1
 62
   257
176
     1
 90
        1
176
     1
 90
        1
176
     1
 40
1.0
176
     1
 90
        0
176
     1
 62
   257
176
     1
 40
1.0
176
     1
 90
        1
176
     1
 90
        6
176
     1
 90
        2
176
     1
 62
     7
176
     1
 90
        5
176
     1
 90
        0
176
     1
 90
        0
176
     1
290
     0
176
     1
 90
       13
176
     1
 40
0.0
176
     1
 90
        0
176
     1
290
     0
176
     1
290
     1
176
     1
290
     1
176
     1
290
     0
176
     1
290
     0
176
     1
290
     0
176
     1
290
     0
176
     1
290
     0
176
     1
290
     0
176
     1
 90
       50
176
     1
 40
0.0
176
     1
 40
1.0
176
     1
 90
        0
176
     1
 62
    18
176
     1
 90
       50
176
     1
 90
        3
176
     1
 62
     5
420
      255
176
     1
290
     0
176
     1
 90
       50
176
     1
 90
       50
176
     1
 90
       50
176
     1
290
     0
176
     1
 90
       50
176
     1
 62
   256
176
     0
 40
1.0
176
     0
 90
        2
176
     1
  1
strokes_ogs.tif
176
     1
290
     0
176
     1
 40
1.0
176
     1
 40
1.0
176
     1
  0
VISUALSTYLE
  5
313
102
{ACAD_REACTORS
330
310
102
}
330
310
100
AcDbVisualStyle
  2
Gouraud
 70
     2
177
     3
291
     1
 70
    58
 90
        2
176
     1
 90
        2
176
     1
 90
        1
176
     1
 90
        2
176
     1
 40
0.6
176
     1
 40
30.0
176
     1
 62
     7
420
 16777215
176
     1
 90
        0
176
     1
 90
        0
176
     1
 62
     7
176
     1
 62
   257
176
     1
 90
        1
176
     1
 90
        1
176
     1
 40
1.0
176
     1
 90
        0
176
     1
 62
     7
176
     1
 40
1.0
176
     1
 90
        1
176
     1
 90
        6
176
     1
 90
        2
176
     1
 62
     7
176
     1
 90
        5
176
     1
 90
        0
176
     1
 90
        0
176
     1
290
     0
176
     1
 90
       13
176
     1
 40
0.0
176
     1
 90
        0
176
     1
290
     0
176
     1
290
     1
176
     1
290
     1
176
     1
290
     0
176
     1
290
     0
176
     1
290
     0
176
     1
290
     0
176
     1
290
     0
176
     1
290
     0
176
     1
 90
       50
176
     1
 40
0.0
176
     1
 40
1.0
176
     1
 90
        0
176
     1
 62
    18
176
     1
 90
       50
176
     1
 90
        3
176
     1
 62
     5
420
      255
176
     1
290
     0
176
     1
 90
       50
176
     1
 90
       50
176
     1
 90
       50
176
     1
290
     0
176
     1
 90
       50
176
     1
 62
   256
176
     0
 40
1.0
176
     0
 90
        2
176
     1
  1
strokes_ogs.tif
176
     1
290
     0
176
     1
 40
1.0
176
     1
 40
1.0
176
     1
  0
VISUALSTYLE
  5
314
102
{ACAD_REACTORS
330
310
102
}
330
310
100
AcDbVisualStyle
  2
GouraudWithEdges
 70
     3
177
     3
291
     1
 70
    58
 90
        2
176
     1
 90
        2
176
     1
 90
        1
176
     1
 90
        2
176
     1
 40
0.6
176
     1
 40
30.0
176
     1
 62
     7
420
 16777215
176
     1
 90
        1
176
     1
 90
        0
176
     1
 62
     7
176
     1
 62
   257
176
     1
 90
        1
176
     1
 90
        1
176
     1
 40
1.0
176
     1
 90
        0
176
     1
 62
   257
176
     1
 40
1.0
176
     1
 90
        1
176
     1
 90
        6
176
     1
 90
        2
176
     1
 62
     7
176
     1
 90
        5
176
     1
 90
        0
176
     1
 90
        0
176
     1
290
     0
176
     1
 90
       13
176
     1
 40
0.0
176
     1
 90
        0
176
     1
290
     0
176
     1
290
     1
176
     1
290
     1
176
     1
290
     0
176
     1
290
     0
176
     1
290
     0
176
     1
290
     0
176
     1
290
     0
176
     1
290
     0
176
     1
 90
       50
176
     1
 40
0.0
176
     1
 40
1.0
176
     1
 90
        0
176
     1
 62
    18
176
     1
 90
       50
176
     1
 90
        3
176
     1
 62
     5
420
      255
176
     1
290
     0
176
     1
 90
       50
176
     1
 90
       50
176
     1
 90
       50
176
     1
290
     0
176
     1
 90
       50
176
     1
 62
   256
176
     0
 40
1.0
176
     0
 90
        2
176
     1
  1
strokes_ogs.tif
176
     1
290
     0
176
     1
 40
1.0
176
     1
 40
1.0
176
     1
  0
VISUALSTYLE
  5
318
102
{ACAD_REACTORS
330
310
102
}
330
310
100
AcDbVisualStyle
  2
Hidden
 70
     6
177
     3
291
     0
 70
    58
 90
        1
176
     1
 90
        2
176
     1
 90
        2
176
     1
 90
        0
176
     1
 40
0.6
176
     1
 40
30.0
176
     1
 62
     7
420
 16777215
176
     1
 90
        2
176
     1
 90
        2
176
     1
 62
     7
176
     1
 62
   257
176
     1
 90
        2
176
     1
 90
        1
176
     1
 40
40.0
176
     1
 90
        0
176
     1
 62
   257
176
     1
 40
1.0
176
     1
 90
        1
176
     1
 90
        6
176
     1
 90
        2
176
     1
 62
     7
176
     1
 90
        3
176
     1
 90
        0
176
     1
 90
        0
176
     1
290
     0
176
     1
 90
        1
176
     1
 40
0.0
176
     1
 90
        0
176
     1
290
     0
176
     1
290
     1
176
     1
290
     1
176
     1
290
     0
176
     1
290
     0
176
     1
290
     0
176
     1
290
     0
176
     1
290
     0
176
     1
290
     0
176
     1
 90
       50
176
     1
 40
0.0
176
     1
 40
1.0
176
     1
 90
        0
176
     1
 62
    18
176
     1
 90
       50
176
     1
 90
        3
176
     1
 62
     5
420
      255
176
     1
290
     0
176
     1
 90
       50
176
     1
 90
       50
176
     1
 90
       50
176
     1
290
     0
176
     1
 90
       50
176
     1
 62
   256
176
     0
 40
1.0
176
     0
 90
        2
176
     1
  1
strokes_ogs.tif
176
     1
290
     0
176
     1
 40
1.0
176
     1
 40
1.0
176
     1
  0
VISUALSTYLE
  5
326
102
{ACAD_REACTORS
330
310
102
}
330
310
100
AcDbVisualStyle
  2
JitterOff
 70
    20
177
     3
291
     1
 70
    58
 90
        2
176
     0
 90
        2
176
     0
 90
        0
176
     0
 90
        0
176
     0
 40
0.6
176
     0
 40
30.0
176
     0
 62
     7
420
 16777215
176
     0
 90
        1
176
     0
 90
        4
176
     0
 62
     7
176
     0
 62
   257
176
     0
 90
        1
176
     0
 90
        1
176
     0
 40
1.0
176
     0
 90
       10
176
     2
 62
     7
176
     0
 40
1.0
176
     0
 90
        1
176
     0
 90
        6
176
     0
 90
        2
176
     0
 62
     7
176
     0
 90
        5
176
     0
 90
        0
176
     0
 90
        0
176
     0
290
     0
176
     0
 90
        1
176
     0
 40
0.0
176
     0
 90
        0
176
     0
290
     0
176
     1
290
     1
176
     1
290
     1
176
     1
290
     0
176
     1
290
     0
176
     1
290
     0
176
     1
290
     0
176
     1
290
     0
176
     1
290
     0
176
     1
 90
       50
176
     0
 40
0.0
176
     0
 40
1.0
176
     0
 90
        0
176
     0
 62
    18
176
     0
 90
       50
176
     0
 90
        3
176
     0
 62
     5
420
      255
176
     0
290
     0
176
     1
 90
       50
176
     0
 90
       50
176
     0
 90
       50
176
     0
290
     0
176
     1
 90
       50
176
     0
 62
   256
176
     0
 40
1.0
176
     0
 90
        2
176
     0
  1
strokes_ogs.tif
176
     0
290
     0
176
     1
 40
1.0
176
     0
 40
1.0
176
     0
  0
VISUALSTYLE
  5
31E
102
{ACAD_REACTORS
330
310
102
}
330
310
100
AcDbVisualStyle
  2
Linepattern
 70
    14
177
     3
291
     1
 70
    58
 90
        2
176
     1
 90
        2
176
     1
 90
        0
176
     1
 90
        0
176
     1
 40
0.6
176
     1
 40
30.0
176
     1
 62
     7
420
 16777215
176
     1
 90
        1
176
     1
 90
        4
176
     1
 62
     7
176
     1
 62
   257
176
     1
 90
        7
176
     1
 90
        7
176
     1
 40
1.0
176
     1
 90
        8
176
     1
 62
     7
176
     1
 40
1.0
176
     1
 90
        1
176
     1
 90
        6
176
     1
 90
        2
176
     1
 62
     7
176
     1
 90
        5
176
     1
 90
        0
176
     1
 90
        0
176
     1
290
     0
176
     1
 90
        1
176
     1
 40
0.0
176
     1
 90
        0
176
     1
290
     0
176
     1
290
     1
176
     1
290
     1
176
     1
290
     0
176
     1
290
     0
176
     1
290
     0
176
     1
290
     0
176
     1
290
     0
176
     1
290
     0
176
     1
 90
       50
176
     1
 40
0.0
176
     1
 40
1.0
176
     1
 90
        0
176
     1
 62
    18
176
     1
 90
       50
176
     1
 90
        3
176
     1
 62
     5
420
      255
176
     1
290
     0
176
     1
 90
       50
176
     1
 90
       50
176
     1
 90
       50
176
     1
290
     0
176
     1
 90
       50
176
     1
 62
   256
176
     0
 40
1.0
176
     0
 90
        2
176
     1
  1
strokes_ogs.tif
176
     1
290
     0
176
     1
 40
1.0
176
     1
 40
1.0
176
     1
  0
VISUALSTYLE
  5
327
102
{ACAD_REACTORS
330
310
102
}
330
310
100
AcDbVisualStyle
  2
OverhangOff
 70
    21
177
     3
291
     1
 70
    58
 90
        2
176
     0
 90
        2
176
     0
 90
        0
176
     0
 90
        0
176
     0
 40
0.6
176
     0
 40
30.0
176
     0
 62
     7
420
 16777215
176
     0
 90
        1
176
     0
 90
        4
176
     0
 62
     7
176
     0
 62
   257
176
     0
 90
        1
176
     0
 90
        1
176
     0
 40
1.0
176
     0
 90
        9
176
     2
 62
     7
176
     0
 40
1.0
176
     0
 90
        1
176
     0
 90
        6
176
     0
 90
        2
176
     0
 62
     7
176
     0
 90
        5
176
     0
 90
        0
176
     0
 90
        0
176
     0
290
     0
176
     0
 90
        1
176
     0
 40
0.0
176
     0
 90
        0
176
     0
290
     0
176
     1
290
     1
176
     1
290
     1
176
     1
290
     0
176
     1
290
     0
176
     1
290
     0
176
     1
290
     0
176
     1
290
     0
176
     1
290
     0
176
     1
 90
       50
176
     0
 40
0.0
176
     0
 40
1.0
176
     0
 90
        0
176
     0
 62
    18
176
     0
 90
       50
176
     0
 90
        3
176
     0
 62
     5
420
      255
176
     0
290
     0
176
     1
 90
       50
176
     0
 90
       50
176
     0
 90
       50
176
     0
290
     0
176
     1
 90
       50
176
     0
 62
   256
176
     0
 40
1.0
176
     0
 90
        2
176
     0
  1
strokes_ogs.tif
176
     0
290
     0
176
     1
 40
1.0
176
     0
 40
1.0
176
     0
  0
VISUALSTYLE
  5
31A
102
{ACAD_REACTORS
330
310
102
}
330
310
100
AcDbVisualStyle
  2
Realistic
 70
     8
177
     3
291
     0
 70
    58
 90
        2
176
     1
 90
        3
176
     1
 90
        0
176
     1
 90
        2
176
     1
 40
0.6
176
     1
 40
30.0
176
     1
 62
     7
420
 16777215
176
     1
 90
        0
176
     1
 90
        0
176
     1
 62
     7
176
     1
 62
   257
176
     1
 90
        1
176
     1
 90
        1
176
     1
 40
1.0
176
     1
 90
        8
176
     1
 62
   257
176
     1
 40
1.0
176
     1
 90
        1
176
     1
 90
        6
176
     1
 90
        2
176
     1
 62
     7
176
     1
 90
        3
176
     1
 90
        0
176
     1
 90
        0
176
     1
290
     0
176
     1
 90
       13
176
     1
 40
0.0
176
     1
 90
        0
176
     1
290
     0
176
     1
290
     1
176
     1
290
     1
176
     1
290
     0
176
     1
290
     0
176
     1
290
     0
176
     1
290
     0
176
     1
290
     0
176
     1
290
     0
176
     1
 90
       50
176
     1
 40
0.0
176
     1
 40
1.0
176
     1
 90
        0
176
     1
 62
    18
176
     1
 90
       50
176
     1
 90
        3
176
     1
 62
     5
420
      255
176
     1
290
     0
176
     1
 90
       50
176
     1
 90
       50
176
     1
 90
       50
176
     1
290
     0
176
     1
 90
       50
176
     1
 62
   256
176
     0
 40
1.0
176
     0
 90
        2
176
     1
  1
strokes_ogs.tif
176
     1
290
     0
176
     1
 40
1.0
176
     1
 40
1.0
176
     1
  0
VISUALSTYLE
  5
325
102
{ACAD_REACTORS
330
310
102
}
330
310
100
AcDbVisualStyle
  2
Shaded
 70
    27
177
     3
291
     0
 70
    58
 90
        2
176
     1
 90
        2
176
     1
 90
        1
176
     1
 90
        2
176
     1
 40
0.6
176
     1
 40
30.0
176
     1
 62
     7
420
 16777215
176
     1
 90
        0
176
     1
 90
        4
176
     1
 62
     7
176
     1
 62
   257
176
     1
 90
        1
176
     1
 90
        1
176
     1
 40
1.0
176
     1
 90
        8
176
     1
 62
   257
176
     1
 40
1.0
176
     1
 90
        1
176
     1
 90
        6
176
     1
 90
        2
176
     1
 62
     8
420
  7895160
176
     1
 90
        3
176
     1
 90
        0
176
     1
 90
        0
176
     1
290
     0
176
     1
 90
        5
176
     1
 40
0.0
176
     1
 90
        0
176
     1
290
     0
176
     1
290
     1
176
     1
290
     1
176
     1
290
     0
176
     1
290
     0
176
     1
290
     0
176
     1
290
     0
176
     1
290
     0
176
     1
290
     0
176
     1
 90
       50
176
     1
 40
0.0
176
     1
 40
1.0
176
     1
 90
        0
176
     1
 62
    18
176
     1
 90
       50
176
     1
 90
        3
176
     1
 62
     5
420
      255
176
     1
290
     0
176
     1
 90
       50
176
     1
 90
       50
176
     1
 90
       50
176
     1
290
     0
176
     1
 90
       50
176
     1
 62
   256
176
     0
 40
1.0
176
     0
 90
        2
176
     1
  1
strokes_ogs.tif
176
     1
290
     0
176
     1
 40
1.0
176
     1
 40
1.0
176
     1
  0
VISUALSTYLE
  5
324
102
{ACAD_REACTORS
330
310
102
}
330
310
100
AcDbVisualStyle
  2
Shaded with edges
 70
    26
177
     3
291
     0
 70
    58
 90
        2
176
     1
 90
        2
176
     1
 90
        1
176
     1
 90
        2
176
     1
 40
0.6
176
     1
 40
30.0
176
     1
 62
     7
420
 16777215
176
     1
 90
        1
176
     1
 90
       10
176
     1
 62
     7
176
     1
 62
   257
176
     1
 90
        2
176
     1
 90
        1
176
     1
 40
1.0
176
     1
 90
        8
176
     1
 62
   257
176
     1
 40
1.0
176
     1
 90
        1
176
     1
 90
        6
176
     1
 90
        2
176
     1
 62
     7
176
     1
 90
        3
176
     1
 90
        0
176
     1
 90
        0
176
     1
290
     0
176
     1
 90
        5
176
     1
 40
0.0
176
     1
 90
        0
176
     1
290
     0
176
     1
290
     1
176
     1
290
     1
176
     1
290
     0
176
     1
290
     0
176
     1
290
     0
176
     1
290
     0
176
     1
290
     0
176
     1
290
     0
176
     1
 90
       50
176
     1
 40
0.0
176
     1
 40
1.0
176
     1
 90
        0
176
     1
 62
    18
176
     1
 90
       50
176
     1
 90
        3
176
     1
 62
     5
420
      255
176
     1
290
     0
176
     1
 90
       50
176
     1
 90
       50
176
     1
 90
       50
176
     1
290
     0
176
     1
 90
       50
176
     1
 62
   256
176
     0
 40
1.0
176
     0
 90
        2
176
     1
  1
strokes_ogs.tif
176
     1
290
     0
176
     1
 40
1.0
176
     1
 40
1.0
176
     1
  0
VISUALSTYLE
  5
321
102
{ACAD_REACTORS
330
310
102
}
330
310
100
AcDbVisualStyle
  2
Shades of Gray
 70
    23
177
     3
291
     0
 70
    58
 90
        2
176
     1
 90
        2
176
     1
 90
        3
176
     1
 90
        0
176
     1
 40
0.6
176
     1
 40
30.0
176
     1
 62
     7
420
 16777215
176
     1
 90
        2
176
     1
 90
        2
176
     1
 62
     7
176
     1
 62
     7
176
     1
 90
        1
176
     1
 90
        1
176
     1
 40
40.0
176
     1
 90
        8
176
     1
 62
     7
176
     1
 40
1.0
176
     1
 90
        1
176
     1
 90
        6
176
     1
 90
        2
176
     1
 62
     7
176
     1
 90
        3
176
     1
 90
        0
176
     1
 90
        0
176
     1
290
     0
176
     1
 90
        1
176
     1
 40
0.0
176
     1
 90
        0
176
     1
290
     0
176
     1
290
     1
176
     1
290
     1
176
     1
290
     0
176
     1
290
     0
176
     1
290
     0
176
     1
290
     0
176
     1
290
     0
176
     1
290
     0
176
     1
 90
       50
176
     1
 40
0.0
176
     1
 40
1.0
176
     1
 90
        0
176
     1
 62
    18
176
     1
 90
       50
176
     1
 90
        3
176
     1
 62
     5
420
      255
176
     1
290
     0
176
     1
 90
       50
176
     1
 90
       50
176
     1
 90
       50
176
     1
290
     0
176
     1
 90
       50
176
     1
 62
   256
176
     0
 40
1.0
176
     0
 90
        2
176
     1
  1
strokes_ogs.tif
176
     1
290
     0
176
     1
 40
1.0
176
     1
 40
1.0
176
     1
  0
VISUALSTYLE
  5
322
102
{ACAD_REACTORS
330
310
102
}
330
310
100
AcDbVisualStyle
  2
Sketchy
 70
    24
177
     3
291
     0
 70
    58
 90
        1
176
     1
 90
        2
176
     1
 90
        2
176
     1
 90
        0
176
     1
 40
0.6
176
     1
 40
30.0
176
     1
 62
     7
420
 16777215
176
     1
 90
        2
176
     1
 90
        2
176
     1
 62
     7
176
     1
 62
     7
176
     1
 90
        1
176
     1
 90
        1
176
     1
 40
40.0
176
     1
 90
       11
176
     1
 62
     7
176
     1
 40
1.0
176
     1
 90
        1
176
     1
 90
        6
176
     1
 90
        2
176
     1
 62
     7
176
     1
 90
        6
176
     1
 90
        0
176
     1
 90
        0
176
     1
290
     0
176
     1
 90
        1
176
     1
 40
0.0
176
     1
 90
        0
176
     1
290
     0
176
     1
290
     1
176
     1
290
     1
176
     1
290
     0
176
     1
290
     0
176
     1
290
     0
176
     1
290
     0
176
     1
290
     0
176
     1
290
     0
176
     1
 90
       50
176
     1
 40
0.0
176
     1
 40
1.0
176
     1
 90
        0
176
     1
 62
    18
176
     1
 90
       50
176
     1
 90
        3
176
     1
 62
     5
420
      255
176
     1
290
     0
176
     1
 90
       50
176
     1
 90
       50
176
     1
 90
       50
176
     1
290
     0
176
     1
 90
       50
176
     1
 62
   256
176
     0
 40
1.0
176
     0
 90
        2
176
     1
  1
strokes_ogs.tif
176
     1
290
     0
176
     1
 40
1.0
176
     1
 40
1.0
176
     1
  0
VISUALSTYLE
  5
31D
102
{ACAD_REACTORS
330
310
102
}
330
310
100
AcDbVisualStyle
  2
Thicken
 70
    13
177
     3
291
     1
 70
    58
 90
        2
176
     1
 90
        2
176
     1
 90
        0
176
     1
 90
        0
176
     1
 40
0.6
176
     1
 40
30.0
176
     1
 62
     7
420
 16777215
176
     1
 90
        1
176
     1
 90
        4
176
     1
 62
     7
176
     1
 62
   257
176
     1
 90
        1
176
     1
 90
        1
176
     1
 40
1.0
176
     1
 90
       12
176
     1
 62
     7
176
     1
 40
1.0
176
     1
 90
        1
176
     1
 90
        6
176
     1
 90
        2
176
     1
 62
     7
176
     1
 90
        5
176
     1
 90
        0
176
     1
 90
        0
176
     1
290
     0
176
     1
 90
        1
176
     1
 40
0.0
176
     1
 90
        0
176
     1
290
     0
176
     1
290
     1
176
     1
290
     1
176
     1
290
     0
176
     1
290
     0
176
     1
290
     0
176
     1
290
     0
176
     1
290
     0
176
     1
290
     0
176
     1
 90
       50
176
     1
 40
0.0
176
     1
 40
1.0
176
     1
 90
        0
176
     1
 62
    18
176
     1
 90
       50
176
     1
 90
        3
176
     1
 62
     5
420
      255
176
     1
290
     0
176
     1
 90
       50
176
     1
 90
       50
176
     1
 90
       50
176
     1
290
     0
176
     1
 90
       50
176
     1
 62
   256
176
     0
 40
1.0
176
     0
 90
        2
176
     1
  1
strokes_ogs.tif
176
     1
290
     0
176
     1
 40
1.0
176
     1
 40
1.0
176
     1
  0
VISUALSTYLE
  5
317
102
{ACAD_REACTORS
330
310
102
}
330
310
100
AcDbVisualStyle
  2
Wireframe
 70
     5
177
     3
291
     0
 70
    58
 90
        0
176
     1
 90
        2
176
     1
 90
        0
176
     1
 90
        0
176
     1
 40
0.6
176
     1
 40
30.0
176
     1
 62
     7
420
 16777215
176
     1
 90
        1
176
     1
 90
        4
176
     1
 62
     7
176
     1
 62
   257
176
     1
 90
        1
176
     1
 90
        1
176
     1
 40
1.0
176
     1
 90
        0
176
     1
 62
   257
176
     1
 40
1.0
176
     1
 90
        1
176
     1
 90
        6
176
     1
 90
        2
176
     1
 62
     7
176
     1
 90
        3
176
     1
 90
        0
176
     1
 90
        0
176
     1
290
     0
176
     1
 90
        1
176
     1
 40
0.0
176
     1
 90
        0
176
     1
290
     0
176
     1
290
     1
176
     1
290
     1
176
     1
290
     0
176
     1
290
     0
176
     1
290
     0
176
     1
290
     0
176
     1
290
     0
176
     1
290
     0
176
     1
 90
       50
176
     1
 40
0.0
176
     1
 40
1.0
176
     1
 90
        0
176
     1
 62
    18
176
     1
 90
       50
176
     1
 90
        3
176
     1
 62
     5
420
      255
176
     1
290
     0
176
     1
 90
       50
176
     1
 90
       50
176
     1
 90
       50
176
     1
290
     0
176
     1
 90
       50
176
     1
 62
   256
176
     0
 40
1.0
176
     0
 90
        2
176
     1
  1
strokes_ogs.tif
176
     1
290
     0
176
     1
 40
1.0
176
     1
 40
1.0
176
     1
  0
VISUALSTYLE
  5
323
102
{ACAD_REACTORS
330
310
102
}
330
310
100
AcDbVisualStyle
  2
X-Ray
 70
    25
177
     3
291
     0
 70
    58
 90
        2
176
     1
 90
        2
176
     1
 90
        1
176
     1
 90
        1
176
     1
 40
0.5
176
     1
 40
30.0
176
     1
 62
     7
420
 16777215
176
     1
 90
        1
176
     1
 90
        0
176
     1
 62
     7
176
     1
 62
   257
176
     1
 90
        1
176
     1
 90
        1
176
     1
 40
1.0
176
     1
 90
        8
176
     1
 62
     7
176
     1
 40
1.0
176
     1
 90
        1
176
     1
 90
        6
176
     1
 90
        2
176
     1
 62
     7
176
     1
 90
        3
176
     1
 90
        0
176
     1
 90
        0
176
     1
290
     0
176
     1
 90
       13
176
     1
 40
0.0
176
     1
 90
        0
176
     1
290
     0
176
     1
290
     1
176
     1
290
     1
176
     1
290
     0
176
     1
290
     0
176
     1
290
     0
176
     1
290
     0
176
     1
290
     0
176
     1
290
     0
176
     1
 90
       50
176
     1
 40
0.0
176
     1
 40
1.0
176
     1
 90
        0
176
     1
 62
    18
176
     1
 90
       50
176
     1
 90
        3
176
     1
 62
     5
420
      255
176
     1
290
     0
176
     1
 90
       50
176
     1
 90
       50
176
     1
 90
       50
176
     1
290
     0
176
     1
 90
       50
176
     1
 62
   256
176
     0
 40
1.0
176
     0
 90
        2
176
     1
  1
strokes_ogs.tif
176
     1
290
     0
176
     1
 40
1.0
176
     1
 40
1.0
176
     1
  0
DICTIONARYVAR
  5
2F4
102
{ACAD_REACTORS
330
2EC
102
}
330
2EC
100
DictionaryVariables
280
     0
  1
1:1
  0
DICTIONARYVAR
  5
365
102
{ACAD_REACTORS
330
2EC
102
}
330
2EC
100
DictionaryVariables
280
     0
  1
STANDARD
  0
DICTIONARYVAR
  5
364
102
{ACAD_REACTORS
330
2EC
102
}
330
2EC
100
DictionaryVariables
280
     0
  1
STANDARD
  0
DICTIONARYVAR
  5
366
102
{ACAD_REACTORS
330
2EC
102
}
330
2EC
100
DictionaryVariables
280
     0
  1
Metric50
  0
DICTIONARYVAR
  5
367
102
{ACAD_REACTORS
330
2EC
102
}
330
2EC
100
DictionaryVariables
280
     0
  1
Metric50
  0
DICTIONARYVAR
  5
36A
102
{ACAD_REACTORS
330
2EC
102
}
330
2EC
100
DictionaryVariables
280
     0
  1
1
  0
DICTIONARYVAR
  5
36B
102
{ACAD_REACTORS
330
2EC
102
}
330
2EC
100
DictionaryVariables
280
     0
  1
15
  0
DICTIONARYVAR
  5
369
102
{ACAD_REACTORS
330
2EC
102
}
330
2EC
100
DictionaryVariables
280
     0
  1
0
  0
DICTIONARYVAR
  5
368
102
{ACAD_REACTORS
330
2EC
102
}
330
2EC
100
DictionaryVariables
280
     0
  1
0
  0
XRECORD
  5
2D6
102
{ACAD_REACTORS
330
2D5
102
}
330
2D5
100
AcDbXrecord
280
     1
 91
     1023
301

290
     0
302
0
330
10
 90
        8
 62
     7
370
    -3
331
16
  1
Color_7
330
0
 90
        8
 62
     7
370
    -3
331
16
  1
Color_7
330
2D3
 90
        0
 62
     7
370
    -3
331
16
  1
Color_7
  0
XRECORD
  5
2E7
102
{ACAD_REACTORS
330
2D5
102
}
330
2D5
100
AcDbXrecord
280
     1
 91
     1023
301

290
     0
302
0
330
10
 90
        8
 62
     7
370
    -3
331
16
  1
Color_7
330
0
 90
        8
 62
     7
370
    -3
331
16
  1
Color_7
330
2D3
 90
        0
 62
     7
370
    -3
331
16
  1
Color_7
330
0
 90
        9
 62
     7
370
    -3
331
16
  1
Color_7
  0
ACDBASSOCNETWORK
  5
23D7
102
{ACAD_REACTORS
330
23D6
102
}
330
23D6
100
AcDbAssocAction
 90
        2
 90
        0
330
23D9
360
0
 90
        1
 90
        0
 90
        0
 90
        0
 90
        0
 90
        0
 90
        0
100
AcDbAssocNetwork
 90
        0
 90
        2
 90
        2
360
23DA
360
2563
 90
        0
  0
ACDBASSOCNETWORK
  5
259E
102
{ACAD_REACTORS
330
259D
102
}
330
259D
100
AcDbAssocAction
 90
        2
 90
        0
330
23D9
360
0
 90
        2
 90
        0
 90
        0
 90
        0
 90
        0
 90
        0
 90
        0
100
AcDbAssocNetwork
 90
        0
 90
        2
 90
        1
360
2595
 90
        0
  0
ACDBASSOCNETWORK
  5
25D5
102
{ACAD_REACTORS
330
25D4
102
}
330
25D4
100
AcDbAssocAction
 90
        2
 90
        0
330
23D9
360
0
 90
        3
 90
        0
 90
        0
 90
        0
 90
        0
 90
        0
 90
        0
100
AcDbAssocNetwork
 90
        0
 90
        2
 90
        1
360
25CC
 90
        0
  0
DICTIONARY
  5
301
330
300
100
AcDbDictionary
280
     1
281
     1
  3
BUMPTILE
360
303
  3
DIFFUSETILE
360
302
  3
OPACITYTILE
360
306
  3
REFLECTIONTILE
360
305
  3
REFRACTIONTILE
360
307
  3
SPECULARTILE
360
304
  0
DICTIONARY
  5
2F9
330
2F8
100
AcDbDictionary
280
     1
281
     1
  3
BUMPTILE
360
2FB
  3
DIFFUSETILE
360
2FA
  3
OPACITYTILE
360
2FE
  3
REFLECTIONTILE
360
2FD
  3
REFRACTIONTILE
360
2FF
  3
SPECULARTILE
360
2FC
  0
DICTIONARY
  5
309
330
308
100
AcDbDictionary
280
     1
281
     1
  3
BUMPTILE
360
30B
  3
DIFFUSETILE
360
30A
  3
OPACITYTILE
360
30E
  3
REFLECTIONTILE
360
30D
  3
REFRACTIONTILE
360
30F
  3
SPECULARTILE
360
30C
  0
DICTIONARY
  5
36C
330
32B
100
AcDbDictionary
280
     1
281
     1
  3
ACAD_ROUNDTRIP_2008_TABLESTYLE_CELLSTYLEMAP
360
2C62
  0
ACDBASSOCACTION
  5
23DA
330
23D7
100
AcDbAssocAction
 90
        2
 90
        0
330
23D7
360
23DB
 90
        1
 90
        3
 90
        3
360
23DE
360
23DF
360
23E0
 90
        0
 90
        3
360
23DC
360
23DD
360
23E1
 90
        0
 90
        9
 90
        0
  1
AlignItems
 90
        0
 90
        1
 90
        0
330
0
330
0
 90
        0
  1
AxesAngle
 90
        2
 90
        1
 40
1.570796326794896
330
0
330
0
 90
        0
  1
ItemSpacing
 90
        1
 90
        1
 40
50.0
330
0
330
0
 90
        0
  1
Items
 90
        0
 90
        1
 90
        4
330
0
330
0
 90
        0
  1
LevelSpacing
 90
        1
 90
        1
 40
1.0
330
0
330
0
 90
        0
  1
Levels
 90
        0
 90
        1
 90
        1
330
0
330
0
 90
        0
  1
RowElevation
 90
        1
 90
        1
 40
0.0
330
0
330
0
 90
        0
  1
RowSpacing
 90
        1
 90
        1
 40
50.0
330
0
330
0
 90
        0
  1
Rows
 90
        0
 90
        1
 90
        4
330
0
330
0
  0
ACDBASSOCACTION
  5
2563
330
23D7
100
AcDbAssocAction
 90
        2
 90
        0
330
23D7
360
2564
 90
        2
 90
        3
 90
        3
360
2567
360
2568
360
2569
 90
        0
 90
        3
360
2565
360
2566
360
256A
 90
        0
 90
        9
 90
        0
  1
AlignItems
 90
        0
 90
        1
 90
        0
330
0
330
0
 90
        0
  1
AxesAngle
 90
        2
 90
        1
 40
1.570796326794896
330
0
330
0
 90
        0
  1
ItemSpacing
 90
        1
 90
        1
 40
2.54
330
0
330
0
 90
        0
  1
Items
 90
        0
 90
        1
 90
        4
330
0
330
0
 90
        0
  1
LevelSpacing
 90
        1
 90
        1
 40
0.9749999999999658
330
0
330
0
 90
        0
  1
Levels
 90
        0
 90
        1
 90
        1
330
0
330
0
 90
        0
  1
RowElevation
 90
        1
 90
        1
 40
0.0
330
0
330
0
 90
        0
  1
RowSpacing
 90
        1
 90
        1
 40
0.9750000000000085
330
0
330
0
 90
        0
  1
Rows
 90
        0
 90
        1
 90
        1
330
0
330
0
  0
ACDBASSOCACTION
  5
2595
330
259E
100
AcDbAssocAction
 90
        2
 90
        0
330
259E
360
2596
 90
        2
 90
        3
 90
        3
360
2597
360
2598
360
2599
 90
        0
 90
        3
360
259A
360
259B
360
259C
 90
        0
 90
        9
 90
        0
  1
AlignItems
 90
        0
 90
        1
 90
        0
330
0
330
0
 90
        0
  1
AxesAngle
 90
        2
 90
        1
 40
1.570796326794896
330
0
330
0
 90
        0
  1
ItemSpacing
 90
        1
 90
        1
 40
2.54
330
0
330
0
 90
        0
  1
Items
 90
        0
 90
        1
 90
        4
330
0
330
0
 90
        0
  1
LevelSpacing
 90
        1
 90
        1
 40
0.9749999999999658
330
0
330
0
 90
        0
  1
Levels
 90
        0
 90
        1
 90
        1
330
0
330
0
 90
        0
  1
RowElevation
 90
        1
 90
        1
 40
0.0
330
0
330
0
 90
        0
  1
RowSpacing
 90
        1
 90
        1
 40
0.9750000000000085
330
0
330
0
 90
        0
  1
Rows
 90
        0
 90
        1
 90
        1
330
0
330
0
  0
ACDBASSOCACTION
  5
25CC
330
25D5
100
AcDbAssocAction
 90
        2
 90
        0
330
25D5
360
25CD
 90
        2
 90
        3
 90
        3
360
25CE
360
25CF
360
25D0
 90
        0
 90
        3
360
25D1
360
25D2
360
25D3
 90
        0
 90
        9
 90
        0
  1
AlignItems
 90
        0
 90
        1
 90
        0
330
0
330
0
 90
        0
  1
AxesAngle
 90
        2
 90
        1
 40
1.570796326794896
330
0
330
0
 90
        0
  1
ItemSpacing
 90
        1
 90
        1
 40
2.54
330
0
330
0
 90
        0
  1
Items
 90
        0
 90
        1
 90
        4
330
0
330
0
 90
        0
  1
LevelSpacing
 90
        1
 90
        1
 40
0.9749999999999658
330
0
330
0
 90
        0
  1
Levels
 90
        0
 90
        1
 90
        1
330
0
330
0
 90
        0
  1
RowElevation
 90
        1
 90
        1
 40
0.0
330
0
330
0
 90
        0
  1
RowSpacing
 90
        1
 90
        1
 40
0.9750000000000085
330
0
330
0
 90
        0
  1
Rows
 90
        0
 90
        1
 90
        1
330
0
330
0
  0
XRECORD
  5
303
102
{ACAD_REACTORS
330
301
102
}
330
301
100
AcDbXrecord
280
     1
270
     1
271
     1
  0
XRECORD
  5
302
102
{ACAD_REACTORS
330
301
102
}
330
301
100
AcDbXrecord
280
     1
270
     1
271
     1
  0
XRECORD
  5
306
102
{ACAD_REACTORS
330
301
102
}
330
301
100
AcDbXrecord
280
     1
270
     1
271
     1
  0
XRECORD
  5
305
102
{ACAD_REACTORS
330
301
102
}
330
301
100
AcDbXrecord
280
     1
270
     1
271
     1
  0
XRECORD
  5
307
102
{ACAD_REACTORS
330
301
102
}
330
301
100
AcDbXrecord
280
     1
270
     1
271
     1
  0
XRECORD
  5
304
102
{ACAD_REACTORS
330
301
102
}
330
301
100
AcDbXrecord
280
     1
270
     1
271
     1
  0
XRECORD
  5
2FB
102
{ACAD_REACTORS
330
2F9
102
}
330
2F9
100
AcDbXrecord
280
     1
270
     1
271
     1
  0
XRECORD
  5
2FA
102
{ACAD_REACTORS
330
2F9
102
}
330
2F9
100
AcDbXrecord
280
     1
270
     1
271
     1
  0
XRECORD
  5
2FE
102
{ACAD_REACTORS
330
2F9
102
}
330
2F9
100
AcDbXrecord
280
     1
270
     1
271
     1
  0
XRECORD
  5
2FD
102
{ACAD_REACTORS
330
2F9
102
}
330
2F9
100
AcDbXrecord
280
     1
270
     1
271
     1
  0
XRECORD
  5
2FF
102
{ACAD_REACTORS
330
2F9
102
}
330
2F9
100
AcDbXrecord
280
     1
270
     1
271
     1
  0
XRECORD
  5
2FC
102
{ACAD_REACTORS
330
2F9
102
}
330
2F9
100
AcDbXrecord
280
     1
270
     1
271
     1
  0
XRECORD
  5
30B
102
{ACAD_REACTORS
330
309
102
}
330
309
100
AcDbXrecord
280
     1
270
     1
271
     1
  0
XRECORD
  5
30A
102
{ACAD_REACTORS
330
309
102
}
330
309
100
AcDbXrecord
280
     1
270
     1
271
     1
  0
XRECORD
  5
30E
102
{ACAD_REACTORS
330
309
102
}
330
309
100
AcDbXrecord
280
     1
270
     1
271
     1
  0
XRECORD
  5
30D
102
{ACAD_REACTORS
330
309
102
}
330
309
100
AcDbXrecord
280
     1
270
     1
271
     1
  0
XRECORD
  5
30F
102
{ACAD_REACTORS
330
309
102
}
330
309
100
AcDbXrecord
280
     1
270
     1
271
     1
  0
XRECORD
  5
30C
102
{ACAD_REACTORS
330
309
102
}
330
309
100
AcDbXrecord
280
     1
270
     1
271
     1
  0
CELLSTYLEMAP
  5
2C62
102
{ACAD_REACTORS
330
36C
102
}
330
36C
100
AcDbCellStyleMap
 90
        3
300
CELLSTYLE
  1
TABLEFORMAT_BEGIN
 90
        5
170
     1
 91
        0
 92
    32768
 62
   257
 93
        1
300
CONTENTFORMAT
  1
CONTENTFORMAT_BEGIN
 90
        0
 91
        0
 92
      512
 93
        0
300

 40
0.0
140
1.0
 94
        5
 62
     0
340
11
144
6.0
309
CONTENTFORMAT_END
171
     1
301
MARGIN
  1
CELLMARGIN_BEGIN
 40
1.5
 40
1.5
 40
1.5
 40
1.5
 40
0.18
 40
0.18
309
CELLMARGIN_END
 94
        6
 95
        1
302
GRIDFORMAT
  1
GRIDFORMAT_BEGIN
 90
        0
 91
        1
 62
     0
 92
       -2
340
0
 93
        0
 40
1.125
309
GRIDFORMAT_END
 95
        2
302
GRIDFORMAT
  1
GRIDFORMAT_BEGIN
 90
        0
 91
        1
 62
     0
 92
       -2
340
0
 93
        0
 40
1.125
309
GRIDFORMAT_END
 95
        4
302
GRIDFORMAT
  1
GRIDFORMAT_BEGIN
 90
        0
 91
        1
 62
     0
 92
       -2
340
0
 93
        0
 40
1.125
309
GRIDFORMAT_END
 95
        8
302
GRIDFORMAT
  1
GRIDFORMAT_BEGIN
 90
        0
 91
        1
 62
     0
 92
       -2
340
0
 93
        0
 40
1.125
309
GRIDFORMAT_END
 95
       16
302
GRIDFORMAT
  1
GRIDFORMAT_BEGIN
 90
        0
 91
        1
 62
     0
 92
       -2
340
0
 93
        0
 40
1.125
309
GRIDFORMAT_END
 95
       32
302
GRIDFORMAT
  1
GRIDFORMAT_BEGIN
 90
        0
 91
        1
 62
     0
 92
       -2
340
0
 93
        0
 40
1.125
309
GRIDFORMAT_END
309
TABLEFORMAT_END
  1
CELLSTYLE_BEGIN
 90
        1
 91
        1
300
_TITLE
309
CELLSTYLE_END
300
CELLSTYLE
  1
TABLEFORMAT_BEGIN
 90
        5
170
     1
 91
        0
 92
        0
 62
   257
 93
        1
300
CONTENTFORMAT
  1
CONTENTFORMAT_BEGIN
 90
        0
 91
        0
 92
      512
 93
        0
300

 40
0.0
140
1.0
 94
        5
 62
     0
340
11
144
4.5
309
CONTENTFORMAT_END
171
     1
301
MARGIN
  1
CELLMARGIN_BEGIN
 40
1.5
 40
1.5
 40
1.5
 40
1.5
 40
0.18
 40
0.18
309
CELLMARGIN_END
 94
        6
 95
        1
302
GRIDFORMAT
  1
GRIDFORMAT_BEGIN
 90
        0
 91
        1
 62
     0
 92
       -2
340
0
 93
        0
 40
1.125
309
GRIDFORMAT_END
 95
        2
302
GRIDFORMAT
  1
GRIDFORMAT_BEGIN
 90
        0
 91
        1
 62
     0
 92
       -2
340
0
 93
        0
 40
1.125
309
GRIDFORMAT_END
 95
        4
302
GRIDFORMAT
  1
GRIDFORMAT_BEGIN
 90
        0
 91
        1
 62
     0
 92
       -2
340
0
 93
        0
 40
1.125
309
GRIDFORMAT_END
 95
        8
302
GRIDFORMAT
  1
GRIDFORMAT_BEGIN
 90
        0
 91
        1
 62
     0
 92
       -2
340
0
 93
        0
 40
1.125
309
GRIDFORMAT_END
 95
       16
302
GRIDFORMAT
  1
GRIDFORMAT_BEGIN
 90
        0
 91
        1
 62
     0
 92
       -2
340
0
 93
        0
 40
1.125
309
GRIDFORMAT_END
 95
       32
302
GRIDFORMAT
  1
GRIDFORMAT_BEGIN
 90
        0
 91
        1
 62
     0
 92
       -2
340
0
 93
        0
 40
1.125
309
GRIDFORMAT_END
309
TABLEFORMAT_END
  1
CELLSTYLE_BEGIN
 90
        2
 91
        1
300
_HEADER
309
CELLSTYLE_END
300
CELLSTYLE
  1
TABLEFORMAT_BEGIN
 90
        5
170
     1
 91
        0
 92
        0
 62
   257
 93
        1
300
CONTENTFORMAT
  1
CONTENTFORMAT_BEGIN
 90
        0
 91
        0
 92
      512
 93
        0
300

 40
0.0
140
1.0
 94
        2
 62
     0
340
11
144
4.5
309
CONTENTFORMAT_END
171
     1
301
MARGIN
  1
CELLMARGIN_BEGIN
 40
1.5
 40
1.5
 40
1.5
 40
1.5
 40
0.18
 40
0.18
309
CELLMARGIN_END
 94
        6
 95
        1
302
GRIDFORMAT
  1
GRIDFORMAT_BEGIN
 90
        0
 91
        1
 62
     0
 92
       -2
340
0
 93
        0
 40
1.125
309
GRIDFORMAT_END
 95
        2
302
GRIDFORMAT
  1
GRIDFORMAT_BEGIN
 90
        0
 91
        1
 62
     0
 92
       -2
340
0
 93
        0
 40
1.125
309
GRIDFORMAT_END
 95
        4
302
GRIDFORMAT
  1
GRIDFORMAT_BEGIN
 90
        0
 91
        1
 62
     0
 92
       -2
340
0
 93
        0
 40
1.125
309
GRIDFORMAT_END
 95
        8
302
GRIDFORMAT
  1
GRIDFORMAT_BEGIN
 90
        0
 91
        1
 62
     0
 92
       -2
340
0
 93
        0
 40
1.125
309
GRIDFORMAT_END
 95
       16
302
GRIDFORMAT
  1
GRIDFORMAT_BEGIN
 90
        0
 91
        1
 62
     0
 92
       -2
340
0
 93
        0
 40
1.125
309
GRIDFORMAT_END
 95
       32
302
GRIDFORMAT
  1
GRIDFORMAT_BEGIN
 90
        0
 91
        1
 62
     0
 92
       -2
340
0
 93
        0
 40
1.125
309
GRIDFORMAT_END
309
TABLEFORMAT_END
  1
CELLSTYLE_BEGIN
 90
        3
 91
        2
300
_DATA
309
CELLSTYLE_END
  0
ACDBASSOCARRAYACTIONBODY
  5
23DB
330
23DA
100
AcDbAssocActionBody
 90
        2
100
AcDbAssocArrayActionBody
 90
        1
  1
AcDbAssocArrayRectangularParameters
 90
        0
 90
       16
  1
AcDbAssocArrayItem
100
AcDbAssocArrayItem
 90
        0
 90
        0
 90
        0
 90
        0
 90
        8
 11
0.0
 21
0.0
 31
0.0
330
23E9
100
AcDbAssocArrayItem
 90
        0
 90
        0
 90
        1
 90
        0
 90
        8
 11
0.0000000000000031
 21
50.0
 31
0.0
330
23EA
100
AcDbAssocArrayItem
 90
        0
 90
        0
 90
        2
 90
        0
 90
        8
 11
0.0000000000000061
 21
100.0
 31
0.0
330
23EB
100
AcDbAssocArrayItem
 90
        0
 90
        0
 90
        3
 90
        0
 90
        8
 11
0.0000000000000092
 21
150.0
 31
0.0
330
23EC
100
AcDbAssocArrayItem
 90
        0
 90
        1
 90
        0
 90
        0
 90
        8
 11
50.0
 21
0.0
 31
0.0
330
23ED
100
AcDbAssocArrayItem
 90
        0
 90
        1
 90
        1
 90
        0
 90
        8
 11
50.0
 21
50.0
 31
0.0
330
23EE
100
AcDbAssocArrayItem
 90
        0
 90
        1
 90
        2
 90
        0
 90
        8
 11
50.0
 21
100.0
 31
0.0
330
23EF
100
AcDbAssocArrayItem
 90
        0
 90
        1
 90
        3
 90
        0
 90
        8
 11
50.0
 21
150.0
 31
0.0
330
23F0
100
AcDbAssocArrayItem
 90
        0
 90
        2
 90
        0
 90
        0
 90
        8
 11
100.0
 21
0.0
 31
0.0
330
23F1
100
AcDbAssocArrayItem
 90
        0
 90
        2
 90
        1
 90
        0
 90
        8
 11
100.0
 21
50.0
 31
0.0
330
23F2
100
AcDbAssocArrayItem
 90
        0
 90
        2
 90
        2
 90
        0
 90
        8
 11
100.0
 21
100.0
 31
0.0
330
23F3
100
AcDbAssocArrayItem
 90
        0
 90
        2
 90
        3
 90
        0
 90
        8
 11
100.0
 21
150.0
 31
0.0
330
23F4
100
AcDbAssocArrayItem
 90
        0
 90
        3
 90
        0
 90
        0
 90
        8
 11
150.0
 21
0.0
 31
0.0
330
23F5
100
AcDbAssocArrayItem
 90
        0
 90
        3
 90
        1
 90
        0
 90
        8
 11
150.0
 21
50.0
 31
0.0
330
23F6
100
AcDbAssocArrayItem
 90
        0
 90
        3
 90
        2
 90
        0
 90
        8
 11
150.0
 21
100.0
 31
0.0
330
23F7
100
AcDbAssocArrayItem
 90
        0
 90
        3
 90
        3
 90
        0
 90
        8
 11
150.0
 21
150.0
 31
0.0
330
23F8
 40
1.0
 40
0.0
 40
0.0
 40
36.2169460192589
 40
0.0
 40
1.0
 40
0.0
 40
29.30059857621811
 40
0.0
 40
0.0
 40
1.0
 40
0.0
 40
0.0
 40
0.0
 40
0.0
 40
1.0
  0
ACDBASSOCDEPENDENCY
  5
23DE
330
23DA
100
AcDbAssocDependency
 90
        2
 90
        0
290
     0
290
     1
290
     1
290
     1
 90
        0
330
23C7
290
     0
330
0
330
0
360
0
 90
        1
  0
ACDBASSOCDEPENDENCY
  5
23DF
330
23DA
100
AcDbAssocDependency
 90
        2
 90
        0
290
     1
290
     0
290
     1
290
     1
 90
        0
330
23C4
290
     0
330
0
330
0
360
0
 90
        2
  0
ACDBASSOCDEPENDENCY
  5
23E0
330
23DA
100
AcDbAssocDependency
 90
        2
 90
        0
290
     1
290
     1
290
     1
290
     1
 90
-2147483648
330
23CA
290
     0
330
0
330
0
360
0
 90
        3
  0
ACDBASSOCVERTEXACTIONPARAM
  5
23DC
330
23DA
100
AcDbAssocActionParam
 90
        1
 90
        0
  1
BaseNormal
100
AcDbAssocSingleDependencyActionParam
 90
        0
330
0
100
AcDbAssocVertexActionParam
 90
        0
 10
0.0
 20
0.0
 30
1.0
  0
ACDBASSOCVERTEXACTIONPARAM
  5
23DD
330
23DA
100
AcDbAssocActionParam
 90
        1
 90
        0
  1
Origin
100
AcDbAssocSingleDependencyActionParam
 90
        0
330
0
100
AcDbAssocVertexActionParam
 90
        0
 10
0.0
 20
0.0
 30
0.0
  0
ACDBASSOCVERTEXACTIONPARAM
  5
23E1
330
23DA
100
AcDbAssocActionParam
 90
        1
 90
        0
  1
basePoint
100
AcDbAssocSingleDependencyActionParam
 90
        0
330
0
100
AcDbAssocVertexActionParam
 90
        0
 10
0.0
 20
0.0
 30
0.0
  0
ACDBASSOCARRAYACTIONBODY
  5
2564
330
2563
100
AcDbAssocActionBody
 90
        2
100
AcDbAssocArrayActionBody
 90
        1
  1
AcDbAssocArrayRectangularParameters
 90
        0
 90
        4
  1
AcDbAssocArrayItem
100
AcDbAssocArrayItem
 90
        0
 90
        0
 90
        0
 90
        0
 90
        8
 11
0.0
 21
0.0
 31
0.0
330
256C
100
AcDbAssocArrayItem
 90
        0
 90
        1
 90
        0
 90
        0
 90
        8
 11
2.54
 21
0.0
 31
0.0
330
256D
100
AcDbAssocArrayItem
 90
        0
 90
        2
 90
        0
 90
        0
 90
        8
 11
5.08
 21
0.0
 31
0.0
330
256E
100
AcDbAssocArrayItem
 90
        0
 90
        3
 90
        0
 90
        0
 90
        8
 11
7.62
 21
0.0
 31
0.0
330
256F
 40
0.0000000000000002
 40
-1.0
 40
0.0
 40
30.18874739373035
 40
1.0
 40
0.0000000000000002
 40
0.0
 40
-326.6146250044155
 40
0.0
 40
0.0
 40
1.0
 40
0.0
 40
0.0
 40
0.0
 40
0.0
 40
1.0
  0
ACDBASSOCDEPENDENCY
  5
2567
330
2563
100
AcDbAssocDependency
 90
        2
 90
        0
290
     0
290
     1
290
     1
290
     1
 90
        0
330
255D
290
     0
330
0
330
0
360
0
 90
        1
  0
ACDBASSOCDEPENDENCY
  5
2568
330
2563
100
AcDbAssocDependency
 90
        2
 90
        0
290
     1
290
     0
290
     1
290
     1
 90
        0
330
255A
290
     0
330
0
330
0
360
0
 90
        2
  0
ACDBASSOCDEPENDENCY
  5
2569
330
2563
100
AcDbAssocDependency
 90
        2
 90
        0
290
     1
290
     1
290
     1
290
     1
 90
-2147483648
330
2560
290
     0
330
0
330
0
360
0
 90
        3
  0
ACDBASSOCVERTEXACTIONPARAM
  5
2565
330
2563
100
AcDbAssocActionParam
 90
        1
 90
        0
  1
BaseNormal
100
AcDbAssocSingleDependencyActionParam
 90
        0
330
0
100
AcDbAssocVertexActionParam
 90
        0
 10
0.0
 20
0.0
 30
1.0
  0
ACDBASSOCVERTEXACTIONPARAM
  5
2566
330
2563
100
AcDbAssocActionParam
 90
        1
 90
        0
  1
Origin
100
AcDbAssocSingleDependencyActionParam
 90
        0
330
0
100
AcDbAssocVertexActionParam
 90
        0
 10
0.0
 20
0.0
 30
0.0
  0
ACDBASSOCVERTEXACTIONPARAM
  5
256A
330
2563
100
AcDbAssocActionParam
 90
        1
 90
        0
  1
basePoint
100
AcDbAssocSingleDependencyActionParam
 90
        0
330
0
100
AcDbAssocVertexActionParam
 90
        0
 10
0.0
 20
0.0
 30
0.0
  0
ACDBASSOCARRAYACTIONBODY
  5
2596
330
2595
100
AcDbAssocActionBody
 90
        2
100
AcDbAssocArrayActionBody
 90
        1
  1
AcDbAssocArrayRectangularParameters
 90
        0
 90
        4
  1
AcDbAssocArrayItem
100
AcDbAssocArrayItem
 90
        0
 90
        0
 90
        0
 90
        0
 90
        8
 11
0.0
 21
0.0
 31
0.0
330
2585
100
AcDbAssocArrayItem
 90
        0
 90
        1
 90
        0
 90
        0
 90
        8
 11
2.54
 21
0.0
 31
0.0
330
2586
100
AcDbAssocArrayItem
 90
        0
 90
        2
 90
        0
 90
        0
 90
        8
 11
5.08
 21
0.0
 31
0.0
330
2587
100
AcDbAssocArrayItem
 90
        0
 90
        3
 90
        0
 90
        0
 90
        8
 11
7.62
 21
0.0
 31
0.0
330
2588
 40
0.0000000000000002
 40
-1.0
 40
0.0
 40
2.575001540799974
 40
1.0
 40
0.0000000000000002
 40
0.0
 40
1.189999999999997
 40
0.0
 40
0.0
 40
1.0
 40
0.0
 40
0.0
 40
0.0
 40
0.0
 40
1.0
  0
ACDBASSOCDEPENDENCY
  5
2597
330
2595
100
AcDbAssocDependency
 90
        2
 90
        0
290
     0
290
     1
290
     1
290
     1
 90
        0
330
2583
290
     0
330
0
330
0
360
0
 90
        1
  0
ACDBASSOCDEPENDENCY
  5
2598
330
2595
100
AcDbAssocDependency
 90
        2
 90
        0
290
     1
290
     0
290
     1
290
     1
 90
        0
330
257F
290
     0
330
0
330
0
360
0
 90
        2
  0
ACDBASSOCDEPENDENCY
  5
2599
330
2595
100
AcDbAssocDependency
 90
        2
 90
        0
290
     1
290
     1
290
     1
290
     1
 90
-2147483648
330
258E
290
     0
330
0
330
0
360
0
 90
        3
  0
ACDBASSOCVERTEXACTIONPARAM
  5
259A
330
2595
100
AcDbAssocActionParam
 90
        1
 90
        0
  1
BaseNormal
100
AcDbAssocSingleDependencyActionParam
 90
        0
330
0
100
AcDbAssocVertexActionParam
 90
        0
 10
0.0
 20
0.0
 30
1.0
  0
ACDBASSOCVERTEXACTIONPARAM
  5
259B
330
2595
100
AcDbAssocActionParam
 90
        1
 90
        0
  1
Origin
100
AcDbAssocSingleDependencyActionParam
 90
        0
330
0
100
AcDbAssocVertexActionParam
 90
        0
 10
0.0
 20
0.0
 30
0.0
  0
ACDBASSOCVERTEXACTIONPARAM
  5
259C
330
2595
100
AcDbAssocActionParam
 90
        1
 90
        0
  1
basePoint
100
AcDbAssocSingleDependencyActionParam
 90
        0
330
0
100
AcDbAssocVertexActionParam
 90
        0
 10
0.0
 20
0.0
 30
0.0
  0
ACDBASSOCARRAYACTIONBODY
  5
25CD
330
25CC
100
AcDbAssocActionBody
 90
        2
100
AcDbAssocArrayActionBody
 90
        1
  1
AcDbAssocArrayRectangularParameters
 90
        0
 90
        4
  1
AcDbAssocArrayItem
100
AcDbAssocArrayItem
 90
        0
 90
        0
 90
        0
 90
        0
 90
        8
 11
0.0
 21
0.0
 31
0.0
330
25BF
100
AcDbAssocArrayItem
 90
        0
 90
        1
 90
        0
 90
        0
 90
        8
 11
2.54
 21
0.0
 31
0.0
330
25C0
100
AcDbAssocArrayItem
 90
        0
 90
        2
 90
        0
 90
        0
 90
        8
 11
5.08
 21
0.0
 31
0.0
330
25C1
100
AcDbAssocArrayItem
 90
        0
 90
        3
 90
        0
 90
        0
 90
        8
 11
7.62
 21
0.0
 31
0.0
330
25C2
 40
0.0000000000000002
 40
-1.0
 40
0.0
 40
0.3249999999999886
 40
1.0
 40
0.0000000000000002
 40
0.0
 40
0.3250000000000028
 40
0.0
 40
0.0
 40
1.0
 40
0.0
 40
0.0
 40
0.0
 40
0.0
 40
1.0
  0
ACDBASSOCDEPENDENCY
  5
25CE
330
25CC
100
AcDbAssocDependency
 90
        2
 90
        0
290
     0
290
     1
290
     1
290
     1
 90
        0
330
25BD
290
     0
330
0
330
0
360
0
 90
        1
  0
ACDBASSOCDEPENDENCY
  5
25CF
330
25CC
100
AcDbAssocDependency
 90
        2
 90
        0
290
     1
290
     0
290
     1
290
     1
 90
        0
330
25B9
290
     0
330
0
330
0
360
0
 90
        2
  0
ACDBASSOCDEPENDENCY
  5
25D0
330
25CC
100
AcDbAssocDependency
 90
        2
 90
        0
290
     1
290
     1
290
     1
290
     1
 90
-2147483648
330
25C5
290
     0
330
0
330
0
360
0
 90
        3
  0
ACDBASSOCVERTEXACTIONPARAM
  5
25D1
330
25CC
100
AcDbAssocActionParam
 90
        1
 90
        0
  1
BaseNormal
100
AcDbAssocSingleDependencyActionParam
 90
        0
330
0
100
AcDbAssocVertexActionParam
 90
        0
 10
0.0
 20
0.0
 30
1.0
  0
ACDBASSOCVERTEXACTIONPARAM
  5
25D2
330
25CC
100
AcDbAssocActionParam
 90
        1
 90
        0
  1
Origin
100
AcDbAssocSingleDependencyActionParam
 90
        0
330
0
100
AcDbAssocVertexActionParam
 90
        0
 10
0.0
 20
0.0
 30
0.0
  0
ACDBASSOCVERTEXACTIONPARAM
  5
25D3
330
25CC
100
AcDbAssocActionParam
 90
        1
 90
        0
  1
basePoint
100
AcDbAssocSingleDependencyActionParam
 90
        0
330
0
100
AcDbAssocVertexActionParam
 90
        0
 10
0.0
 20
0.0
 30
0.0
  0
ENDSEC
  0
SECTION
  2
ACDSDATA
 70
     2
 71
     2
  0
ACDSSCHEMA
 90
        0
  1
AcDb_Thumbnail_Schema
  2
AcDbDs::ID
280
    10
 91
        8
  2
Thumbnail_Data
280
    15
 91
        0
101
ACDSRECORD
 95
        0
 90
        1
  2
AcDbDs::TreatedAsObjectData
280
     1
291
     1
101
ACDSRECORD
 95
        0
 90
        2
  2
AcDbDs::Legacy
280
     1
291
     1
101
ACDSRECORD
  1
AcDbDs::ID
 90
        3
  2
AcDs:Indexable
280
     1
291
     1
101
ACDSRECORD
  1
AcDbDs::ID
 90
        4
  2
AcDbDs::HandleAttribute
280
     7
282
     1
  0
ACDSSCHEMA
 90
        1
  1
AcDbDs::TreatedAsObjectDataSchema
  2
AcDbDs::TreatedAsObjectData
280
     1
 91
        0
  0
ACDSSCHEMA
 90
        2
  1
AcDbDs::LegacySchema
  2
AcDbDs::Legacy
280
     1
 91
        0
  0
ACDSSCHEMA
 90
        3
  1
AcDbDs::IndexedPropertySchema
  2
AcDs:Indexable
280
     1
 91
        0
  0
ACDSSCHEMA
 90
        4
  1
AcDbDs::HandleAttributeSchema
  2
AcDbDs::HandleAttribute
280
     7
 91
        1
284
     1
  0
ACDSRECORD
 90
        0
  2
AcDbDs::ID
280
    10
320
22
  2
Thumbnail_Data
280
    15
 94
     1614
310
89504E470D0A1A0A0000000D494844520000010000000076080300000010A0BD3C00000300504C5445FFFFFF000000C8C8C80000000000000000000000000000000000000000000000000000330000660000990000CC0000FF0033000033330033660033990033CC0033FF0066000066330066660066990066CC0066FF0099
310
000099330099660099990099CC0099FF00CC0000CC3300CC6600CC9900CCCC00CCFF00FF0000FF3300FF6600FF9900FFCC00FFFF3300003300333300663300993300CC3300FF3333003333333333663333993333CC3333FF3366003366333366663366993366CC3366FF3399003399333399663399993399CC3399FF33CC00
310
33CC3333CC6633CC9933CCCC33CCFF33FF0033FF3333FF6633FF9933FFCC33FFFF6600006600336600666600996600CC6600FF6633006633336633666633996633CC6633FF6666006666336666666666996666CC6666FF6699006699336699666699996699CC6699FF66CC0066CC3366CC6666CC9966CCCC66CCFF66FF0066
310
FF3366FF6666FF9966FFCC66FFFF9900009900339900669900999900CC9900FF9933009933339933669933999933CC9933FF9966009966339966669966999966CC9966FF9999009999339999669999999999CC9999FF99CC0099CC3399CC6699CC9999CCCC99CCFF99FF0099FF3399FF6699FF9999FFCC99FFFFCC0000CC00
310
33CC0066CC0099CC00CCCC00FFCC3300CC3333CC3366CC3399CC33CCCC33FFCC6600CC6633CC6666CC6699CC66CCCC66FFCC9900CC9933CC9966CC9999CC99CCCC99FFCCCC00CCCC33CCCC66CCCC99CCCCCCCCCCFFCCFF00CCFF33CCFF66CCFF99CCFFCCCCFFFFFF0000FF0033FF0066FF0099FF00CCFF00FFFF3300FF3333
310
FF3366FF3399FF33CCFF33FFFF6600FF6633FF6666FF6699FF66CCFF66FFFF9900FF9933FF9966FF9999FF99CCFF99FFFFCC00FFCC33FFCC66FFCC99FFCCCCFFCCFFFFFF00FFFF33FFFF66FFFF99FFFFCCFFFFFF0000000D0D0D1A1A1A2828283535354343435050505D5D5D6B6B6B787878868686939393A1A1A1AEAEAEBB
310
BBBBC9C9C9D6D6D6E4E4E4F1F1F1FFFFFF000000000000000000000000000000000000000000000000000000000000B0E2D2350000028F4944415478DAED9D4B72C3200C86E9DAAB5C245965D55E245D79D78B749703F53EFF493A83E3F10B888D5F42FA59C48C130FF059C81212B183F1E2B28AD2612D0010AA266B5D9F36
310
F959B2D1617D2700B2EFFF1100F6922881BD2380539A2000D900201A002801044000044000044000044000B404290104400004707E13072FEB4A04B0ECFCCA3532810022431E03082D8AAB03304FF2F502484B7A39001668A90D635B335B156609A209230DBAD6F6102E747A35006153A007A01B7110802300AD0036528204
310
4000044000650318AB77A46D26C100B01100249CA17C00903B059658C90E0A75C05CB7DF5F4300044000EA9C219776863ADD4800D60148378464EB0088B504F500E0538000086081BAC802A0E529B0DDCE9FD941E3222400033B60D614281440E4C704601D40C65300B2D604E75B5B07033868E3E409DE20AC7B83B0BE1E00
310
472548005A00B473C2AE04009625A0D37948794CC20DA12C00CD755300AFA1A583A350B026E8AF43200D004141100C605D82440C403A41027A32440880000880006C0198260387BDC164AEB00600AD0B90952E5F2A80CD364C146B0A4FFDDFF73A60D5B824EF1DC6C807DA0780130F2026F2783B957400C8FA1AC506469668
310
C4737B27AA0902200002900C0004C029400004400004400004400004404B9012B02767B16F983806807B45157CB539BE92479A4C8B665D75F4BA07E72C4B40A54B027AF942A3BCA1FE209B5A55F98FCA9991803E80CA177F70B6A7803A25380E99248387FA002C8C9EDEEBC7E7F3F2A81F5A0CA1C0A893B1A38FB668B203DE
310
9FD20C602AED88E5D5FA29F05BDFFFAE3FF597661D6051020CEB80E99D4F02B8D5F5E5FB797DDEACBF6DAEE0F70D4624A0CB8E18BA04D13F1B916BA32A9180A34AE3DAD82DAD73B767F9074E24E040967C9B000000000049454E44AE42608229FF340AF9D0070000000049454E44AE426082016CDCEF0E80D28D07BABAFD6D
310
0099EDCA4702B06048D90DB64A13A1D12CC06C24550A40379202372E5034986C2618AE1A0C7C6374B739020000C4EE0E010000000000420821841042082184104208BD49FF0038AA72F3A1D3882C0000000049454E44AE426082
  0
ENDSEC
  0
EOF
