  0
SECTION
  2
HEADER
  9
$ACADVER
  1
AC1024
  9
$ACADMAINTVER
 70
   109
  9
$DWGCODEPAGE
  3
ANSI_1252
  9
$LASTSAVEDBY
  1
sabrina
  9
$INSBASE
 10
0.0
 20
0.0
 30
0.0
  9
$EXTMIN
 10
-192.3691158256408
 20
-124.4263767028434
 30
0.0
  9
$EXTMAX
 10
392.0612906960585
 20
145.383478179784
 30
0.0
  9
$LIMMIN
 10
0.0
 20
0.0
  9
$LIMMAX
 10
420.0
 20
297.0
  9
$ORTHOMODE
 70
     0
  9
$REGENMODE
 70
     1
  9
$FILLMODE
 70
     1
  9
$QTEXTMODE
 70
     0
  9
$MIRRTEXT
 70
     1
  9
$LTSCALE
 40
0.5
  9
$ATTMODE
 70
     1
  9
$TEXTSIZE
 40
3.5
  9
$TRACEWID
 40
1.0
  9
$TEXTSTYLE
  7
Standard
  9
$CLAYER
  8
BEM
  9
$CELTYPE
  6
ByLayer
  9
$CECOLOR
 62
   256
  9
$CELTSCALE
 40
1.0
  9
$DISPSILH
 70
     0
  9
$DIMSCALE
 40
1.0
  9
$DIMASZ
 40
2.5
  9
$DIMEXO
 40
1.0
  9
$DIMDLI
 40
4.0
  9
$DIMRND
 40
0.0
  9
$DIMDLE
 40
0.0
  9
$DIMEXE
 40
1.0
  9
$DIMTP
 40
0.0
  9
$DIMTM
 40
0.0
  9
$DIMTXT
 40
2.5
  9
$DIMCEN
 40
2.5
  9
$DIMTSZ
 40
0.0
  9
$DIMTOL
 70
     0
  9
$DIMLIM
 70
     0
  9
$DIMTIH
 70
     0
  9
$DIMTOH
 70
     0
  9
$DIMSE1
 70
     0
  9
$DIMSE2
 70
     0
  9
$DIMTAD
 70
     1
  9
$DIMZIN
 70
     0
  9
$DIMBLK
  1

  9
$DIMASO
 70
     1
  9
$DIMSHO
 70
     1
  9
$DIMPOST
  1

  9
$DIMAPOST
  1

  9
$DIMALT
 70
     0
  9
$DIMALTD
 70
     3
  9
$DIMALTF
 40
0.0393700787
  9
$DIMLFAC
 40
1.0
  9
$DIMTOFL
 70
     1
  9
$DIMTVP
 40
0.0
  9
$DIMTIX
 70
     0
  9
$DIMSOXD
 70
     0
  9
$DIMSAH
 70
     0
  9
$DIMBLK1
  1

  9
$DIMBLK2
  1

  9
$DIMSTYLE
  2
ISO-25
  9
$DIMCLRD
 70
     0
  9
$DIMCLRE
 70
     0
  9
$DIMCLRT
 70
     0
  9
$DIMTFAC
 40
1.0
  9
$DIMGAP
 40
0.5
  9
$DIMJUST
 70
     0
  9
$DIMSD1
 70
     0
  9
$DIMSD2
 70
     0
  9
$DIMTOLJ
 70
     0
  9
$DIMTZIN
 70
     0
  9
$DIMALTZ
 70
     0
  9
$DIMALTTZ
 70
     0
  9
$DIMUPT
 70
     0
  9
$DIMDEC
 70
     2
  9
$DIMTDEC
 70
     2
  9
$DIMALTU
 70
     2
  9
$DIMALTTD
 70
     3
  9
$DIMTXSTY
  7
Standard
  9
$DIMAUNIT
 70
     0
  9
$DIMADEC
 70
     2
  9
$DIMALTRND
 40
0.0
  9
$DIMAZIN
 70
     0
  9
$DIMDSEP
 70
    44
  9
$DIMATFIT
 70
     3
  9
$DIMFRAC
 70
     0
  9
$DIMLDRBLK
  1

  9
$DIMLUNIT
 70
     2
  9
$DIMLWD
 70
    -2
  9
$DIMLWE
 70
    -2
  9
$DIMTMOVE
 70
     0
  9
$DIMFXL
 40
1.0
  9
$DIMFXLON
 70
     0
  9
$DIMJOGANG
 40
0.7853981633974483
  9
$DIMTFILL
 70
     0
  9
$DIMTFILLCLR
 70
     0
  9
$DIMARCSYM
 70
     0
  9
$DIMLTYPE
  6

  9
$DIMLTEX1
  6

  9
$DIMLTEX2
  6

  9
$DIMTXTDIRECTION
 70
     0
  9
$LUNITS
 70
     2
  9
$LUPREC
 70
     2
  9
$SKETCHINC
 40
1.0
  9
$FILLETRAD
 40
1.0
  9
$AUNITS
 70
     0
  9
$AUPREC
 70
     2
  9
$MENU
  1
.
  9
$ELEVATION
 40
0.0
  9
$PELEVATION
 40
0.0
  9
$THICKNESS
 40
0.0
  9
$LIMCHECK
 70
     0
  9
$CHAMFERA
 40
10.0
  9
$CHAMFERB
 40
10.0
  9
$CHAMFERC
 40
20.0
  9
$CHAMFERD
 40
0.0
  9
$SKPOLY
 70
     0
  9
$TDCREATE
 40
2456125.467967361
  9
$TDUCREATE
 40
2456125.384634028
  9
$TDUPDATE
 40
2456749.514047755
  9
$TDUUPDATE
 40
2456749.430714422
  9
$TDINDWG
 40
0.8736935069
  9
$TDUSRTIMER
 40
2456126.258736331
  9
$USRTIMER
 70
     1
  9
$ANGBASE
 50
0.0
  9
$ANGDIR
 70
     0
  9
$PDMODE
 70
     0
  9
$PDSIZE
 40
-1.0
  9
$PLINEWID
 40
0.0
  9
$SPLFRAME
 70
     0
  9
$SPLINETYPE
 70
     6
  9
$SPLINESEGS
 70
     8
  9
$HANDSEED
  5
510C
  9
$SURFTAB1
 70
     6
  9
$SURFTAB2
 70
     6
  9
$SURFTYPE
 70
     6
  9
$SURFU
 70
     6
  9
$SURFV
 70
     6
  9
$UCSBASE
  2

  9
$UCSNAME
  2

  9
$UCSORG
 10
0.0
 20
0.0
 30
0.0
  9
$UCSXDIR
 10
1.0
 20
0.0
 30
0.0
  9
$UCSYDIR
 10
0.0
 20
1.0
 30
0.0
  9
$UCSORTHOREF
  2

  9
$UCSORTHOVIEW
 70
     0
  9
$UCSORGTOP
 10
0.0
 20
0.0
 30
0.0
  9
$UCSORGBOTTOM
 10
0.0
 20
0.0
 30
0.0
  9
$UCSORGLEFT
 10
0.0
 20
0.0
 30
0.0
  9
$UCSORGRIGHT
 10
0.0
 20
0.0
 30
0.0
  9
$UCSORGFRONT
 10
0.0
 20
0.0
 30
0.0
  9
$UCSORGBACK
 10
0.0
 20
0.0
 30
0.0
  9
$PUCSBASE
  2

  9
$PUCSNAME
  2

  9
$PUCSORG
 10
0.0
 20
0.0
 30
0.0
  9
$PUCSXDIR
 10
1.0
 20
0.0
 30
0.0
  9
$PUCSYDIR
 10
0.0
 20
1.0
 30
0.0
  9
$PUCSORTHOREF
  2

  9
$PUCSORTHOVIEW
 70
     0
  9
$PUCSORGTOP
 10
0.0
 20
0.0
 30
0.0
  9
$PUCSORGBOTTOM
 10
0.0
 20
0.0
 30
0.0
  9
$PUCSORGLEFT
 10
0.0
 20
0.0
 30
0.0
  9
$PUCSORGRIGHT
 10
0.0
 20
0.0
 30
0.0
  9
$PUCSORGFRONT
 10
0.0
 20
0.0
 30
0.0
  9
$PUCSORGBACK
 10
0.0
 20
0.0
 30
0.0
  9
$USERI1
 70
     0
  9
$USERI2
 70
     0
  9
$USERI3
 70
     0
  9
$USERI4
 70
     0
  9
$USERI5
 70
     0
  9
$USERR1
 40
0.0
  9
$USERR2
 40
0.0
  9
$USERR3
 40
0.0
  9
$USERR4
 40
0.0
  9
$USERR5
 40
0.0
  9
$WORLDVIEW
 70
     1
  9
$SHADEDGE
 70
     3
  9
$SHADEDIF
 70
    70
  9
$TILEMODE
 70
     1
  9
$MAXACTVP
 70
    64
  9
$PINSBASE
 10
0.0
 20
0.0
 30
0.0
  9
$PLIMCHECK
 70
     0
  9
$PEXTMIN
 10
1.000000000000000E+20
 20
1.000000000000000E+20
 30
1.000000000000000E+20
  9
$PEXTMAX
 10
-1.000000000000000E+20
 20
-1.000000000000000E+20
 30
-1.000000000000000E+20
  9
$PLIMMIN
 10
0.0
 20
0.0
  9
$PLIMMAX
 10
0.0
 20
0.0
  9
$UNITMODE
 70
     0
  9
$VISRETAIN
 70
     1
  9
$PLINEGEN
 70
     0
  9
$PSLTSCALE
 70
     1
  9
$TREEDEPTH
 70
  3020
  9
$CMLSTYLE
  2
Standard
  9
$CMLJUST
 70
     0
  9
$CMLSCALE
 40
20.0
  9
$PROXYGRAPHICS
 70
     1
  9
$MEASUREMENT
 70
     1
  9
$CELWEIGHT
370
    -1
  9
$ENDCAPS
280
     0
  9
$JOINSTYLE
280
     0
  9
$LWDISPLAY
290
     0
  9
$INSUNITS
 70
     4
  9
$HYPERLINKBASE
  1

  9
$STYLESHEET
  1

  9
$XEDIT
290
     1
  9
$CEPSNTYPE
380
     0
  9
$PSTYLEMODE
290
     1
  9
$FINGERPRINTGUID
  2
{83A7DEDD-19FF-453F-ACA9-69F4D013CEB5}
  9
$VERSIONGUID
  2
{452FF258-E5D4-40EB-A04F-45816E447209}
  9
$EXTNAMES
290
     1
  9
$PSVPSCALE
 40
0.0
  9
$OLESTARTUP
290
     0
  9
$SORTENTS
280
   127
  9
$INDEXCTL
280
     0
  9
$HIDETEXT
280
     0
  9
$XCLIPFRAME
280
     2
  9
$HALOGAP
280
     0
  9
$OBSCOLOR
 70
   257
  9
$OBSLTYPE
280
     0
  9
$INTERSECTIONDISPLAY
280
     0
  9
$INTERSECTIONCOLOR
 70
   257
  9
$DIMASSOC
280
     1
  9
$PROJECTNAME
  1

  9
$CAMERADISPLAY
290
     0
  9
$LENSLENGTH
 40
50.0
  9
$CAMERAHEIGHT
 40
0.0
  9
$STEPSPERSEC
 40
2.0
  9
$STEPSIZE
 40
6.0
  9
$3DDWFPREC
 40
2.0
  9
$PSOLWIDTH
 40
0.25
  9
$PSOLHEIGHT
 40
4.0
  9
$LOFTANG1
 40
1.570796326794896
  9
$LOFTANG2
 40
1.570796326794896
  9
$LOFTMAG1
 40
0.0
  9
$LOFTMAG2
 40
0.0
  9
$LOFTPARAM
 70
     7
  9
$LOFTNORMALS
280
     1
  9
$LATITUDE
 40
37.795
  9
$LONGITUDE
 40
-122.394
  9
$NORTHDIRECTION
 40
0.0
  9
$TIMEZONE
 70
 -8000
  9
$LIGHTGLYPHDISPLAY
280
     1
  9
$TILEMODELIGHTSYNCH
280
     1
  9
$CMATERIAL
347
2F8
  9
$SOLIDHIST
280
     0
  9
$SHOWHIST
280
     1
  9
$DWFFRAME
280
     2
  9
$DGNFRAME
280
     0
  9
$REALWORLDSCALE
290
     1
  9
$INTERFERECOLOR
 62
     1
  9
$INTERFEREOBJVS
345
31A
  9
$INTERFEREVPVS
346
317
  9
$CSHADOW
280
     0
  9
$SHADOWPLANELOCATION
 40
0.0
  0
ENDSEC
  0
SECTION
  2
CLASSES
  0
CLASS
  1
ACDBDICTIONARYWDFLT
  2
AcDbDictionaryWithDefault
  3
ObjectDBX Classes
 90
        0
 91
        1
280
     0
281
     0
  0
CLASS
  1
VISUALSTYLE
  2
AcDbVisualStyle
  3
ObjectDBX Classes
 90
     4095
 91
       24
280
     0
281
     0
  0
CLASS
  1
MATERIAL
  2
AcDbMaterial
  3
ObjectDBX Classes
 90
     1153
 91
        3
280
     0
281
     0
  0
CLASS
  1
SCALE
  2
AcDbScale
  3
ObjectDBX Classes
 90
     1153
 91
       33
280
     0
281
     0
  0
CLASS
  1
TABLESTYLE
  2
AcDbTableStyle
  3
ObjectDBX Classes
 90
     4095
 91
        1
280
     0
281
     0
  0
CLASS
  1
RASTERVARIABLES
  2
AcDbRasterVariables
  3
ISM
 90
        0
 91
        1
280
     0
281
     0
  0
CLASS
  1
DICTIONARYVAR
  2
AcDbDictionaryVar
  3
ObjectDBX Classes
 90
        0
 91
        9
280
     0
281
     0
  0
CLASS
  1
CELLSTYLEMAP
  2
AcDbCellStyleMap
  3
ObjectDBX Classes
 90
     1152
 91
        1
280
     0
281
     0
  0
CLASS
  1
MLEADERSTYLE
  2
AcDbMLeaderStyle
  3
ACDB_MLEADERSTYLE_CLASS
 90
     4095
 91
        1
280
     0
281
     0
  0
CLASS
  1
ACDBSECTIONVIEWSTYLE
  2
AcDbSectionViewStyle
  3
ObjectDBX Classes
 90
     1025
 91
        1
280
     0
281
     0
  0
CLASS
  1
ACDBDETAILVIEWSTYLE
  2
AcDbDetailViewStyle
  3
ObjectDBX Classes
 90
     1025
 91
        1
280
     0
281
     0
  0
CLASS
  1
SORTENTSTABLE
  2
AcDbSortentsTable
  3
ObjectDBX Classes
 90
        0
 91
        1
280
     0
281
     0
  0
CLASS
  1
ACDBASSOCNETWORK
  2
AcDbAssocNetwork
  3
ObjectDBX Classes
 90
     1025
 91
        0
280
     0
281
     0
  0
CLASS
  1
ACDBASSOCACTION
  2
AcDbAssocAction
  3
ObjectDBX Classes
 90
     1025
 91
        0
280
     0
281
     0
  0
CLASS
  1
ACDBASSOCARRAYACTIONBODY
  2
AcDbAssocArrayActionBody
  3
ObjectDBX Classes
 90
     1025
 91
        0
280
     0
281
     0
  0
CLASS
  1
ACDBASSOCDEPENDENCY
  2
AcDbAssocDependency
  3
ObjectDBX Classes
 90
     1025
 91
        0
280
     0
281
     0
  0
CLASS
  1
ACDBASSOCVERTEXACTIONPARAM
  2
AcDbAssocVertexActionParam
  3
ObjectDBX Classes
 90
     1025
 91
        0
280
     0
281
     0
  0
CLASS
  1
ACDB_DYNAMICBLOCKPURGEPREVENTER_VERSION
  2
AcDbDynamicBlockPurgePreventer
  3
ObjectDBX Classes
 90
     1153
 91
        0
280
     0
281
     0
  0
CLASS
  1
ACDBASSOCARRAYRECTANGULARPARAMETERS
  2
AcDbAssocArrayRectangularParameters
  3
ObjectDBX Classes
 90
     1025
 91
        0
280
     0
281
     0
  0
ENDSEC
  0
SECTION
  2
TABLES
  0
TABLE
  2
VPORT
  5
8
330
0
100
AcDbSymbolTable
 70
     1
  0
VPORT
  5
29
330
8
100
AcDbSymbolTableRecord
100
AcDbViewportTableRecord
  2
*Active
 70
     0
 10
0.0
 20
0.0
 11
1.0
 21
1.0
 12
99.86536434230652
 22
37.18577792547506
 13
0.0
 23
0.0
 14
10.0
 24
10.0
 15
10.0
 25
10.0
 16
0.0
 26
0.0
 36
1.0
 17
0.0
 27
0.0
 37
0.0
 40
295.6077177290238
 41
1.908428720083246
 42
50.0
 43
0.0
 44
0.0
 50
0.0
 51
0.0
 71
    16
 72
  2000
 73
     1
 74
     3
 75
     0
 76
     0
 77
     0
 78
     0
281
     0
 65
     1
110
0.0
120
0.0
130
0.0
111
1.0
121
0.0
131
0.0
112
0.0
122
1.0
132
0.0
 79
     0
146
0.0
348
316
 60
     3
 61
     5
292
     1
282
     1
141
0.0
142
0.0
 63
   250
421
  3355443
1001
ACAD_NAV_VCDISPLAY
1070
     3
  0
ENDTAB
  0
TABLE
  2
LTYPE
  5
5
330
0
100
AcDbSymbolTable
 70
     3
  0
LTYPE
  5
14
330
5
100
AcDbSymbolTableRecord
100
AcDbLinetypeTableRecord
  2
ByBlock
 70
     0
  3

 72
    65
 73
     0
 40
0.0
  0
LTYPE
  5
15
330
5
100
AcDbSymbolTableRecord
100
AcDbLinetypeTableRecord
  2
ByLayer
 70
     0
  3

 72
    65
 73
     0
 40
0.0
  0
LTYPE
  5
16
330
5
100
AcDbSymbolTableRecord
100
AcDbLinetypeTableRecord
  2
Continuous
 70
     0
  3
Solid line
 72
    65
 73
     0
 40
0.0
  0
LTYPE
  5
46D6
330
5
100
AcDbSymbolTableRecord
100
AcDbLinetypeTableRecord
  2
MITTE2
 70
     0
  3
Mitte (.5x) ___ _ ___ _ ___ _ ___ _ ___ _ ___
 72
    65
 73
     4
 40
28.575
 49
19.05
 74
     0
 49
-3.174999999999999
 74
     0
 49
3.174999999999999
 74
     0
 49
-3.174999999999999
 74
     0
  0
LTYPE
  5
4FBA
330
5
100
AcDbSymbolTableRecord
100
AcDbLinetypeTableRecord
  2
HIDDEN
 70
     0
  3
Hidden __ __ __ __ __ __ __ __ __ __ __ __ __ __
 72
    65
 73
     2
 40
1.905
 49
1.27
 74
     0
 49
-0.635
 74
     0
  0
ENDTAB
  0
TABLE
  2
LAYER
  5
2
102
{ACAD_XDICTIONARY
360
2D4
102
}
330
0
100
AcDbSymbolTable
 70
     8
  0
LAYER
  5
10
102
{ACAD_XDICTIONARY
360
355
102
}
330
2
100
AcDbSymbolTableRecord
100
AcDbLayerTableRecord
  2
0
 70
     0
 62
     7
  6
Continuous
370
    -3
390
F
347
308
  0
LAYER
  5
2D7
102
{ACAD_XDICTIONARY
360
359
102
}
330
2
100
AcDbSymbolTableRecord
100
AcDbLayerTableRecord
  2
Kontruktion
 70
     0
 62
     7
  6
Continuous
370
    35
390
F
347
308
1001
AcAecLayerStandard
1000

1000

  0
LAYER
  5
46D3
330
2
100
AcDbSymbolTableRecord
100
AcDbLayerTableRecord
  2
BEM
 70
     0
 62
     7
  6
Continuous
370
    15
390
F
347
308
1001
AcAecLayerStandard
1000

1000

1001
AcCmTransparency
1071
        0
  0
LAYER
  5
47E4
330
2
100
AcDbSymbolTableRecord
100
AcDbLayerTableRecord
  2
Mittellienie
 70
     0
 62
     7
  6
MITTE2
370
    15
390
F
347
308
1001
AcAecLayerStandard
1000

1000

1001
AcCmTransparency
1071
        0
  0
LAYER
  5
4826
330
2
100
AcDbSymbolTableRecord
100
AcDbLayerTableRecord
  2
Defpoints
 70
     0
 62
     7
  6
Continuous
290
     0
370
    -3
390
F
347
308
  0
LAYER
  5
4FBB
102
{ACAD_XDICTIONARY
360
4FBC
102
}
330
2
100
AcDbSymbolTableRecord
100
AcDbLayerTableRecord
  2
FORMAT
 70
     0
 62
     7
  6
Continuous
370
    -3
390
F
347
308
  0
LAYER
  5
4FBD
330
2
100
AcDbSymbolTableRecord
100
AcDbLayerTableRecord
  2
legende
 70
     0
 62
     7
  6
Continuous
370
    -3
390
F
347
308
1001
AcAecLayerStandard
1000

1000

1001
AcCmTransparency
1071
        0
  0
LAYER
  5
4FBE
330
2
100
AcDbSymbolTableRecord
100
AcDbLayerTableRecord
  2
Blattrahmen
 70
     0
 62
     7
  6
Continuous
290
     0
370
    -3
390
F
347
308
1001
AcAecLayerStandard
1000

1000

1001
AcCmTransparency
1071
        0
  0
ENDTAB
  0
TABLE
  2
STYLE
  5
3
330
0
100
AcDbSymbolTable
 70
     3
  0
STYLE
  5
11
330
3
100
AcDbSymbolTableRecord
100
AcDbTextStyleTableRecord
  2
Standard
 70
     0
 40
0.0
 41
1.0
 50
0.0
 71
     0
 42
3.5
  3
arial.ttf
  4

1001
ACAD
1000
Arial
1071
       34
  0
STYLE
  5
4FBF
330
3
100
AcDbSymbolTableRecord
100
AcDbTextStyleTableRecord
  2
SLDTEXTSTYLE0
 70
     0
 40
0.0
 41
0.75
 50
0.0
 71
     0
 42
0.2
  3
TXT
  4

  0
STYLE
  5
4FC0
330
3
100
AcDbSymbolTableRecord
100
AcDbTextStyleTableRecord
  2
SLDTEXTSTYLE1
 70
     0
 40
0.0
 41
0.605
 50
0.0
 71
     0
 42
0.2
  3
TXT
  4

  0
ENDTAB
  0
TABLE
  2
VIEW
  5
6
330
0
100
AcDbSymbolTable
 70
     0
  0
ENDTAB
  0
TABLE
  2
UCS
  5
7
330
0
100
AcDbSymbolTable
 70
     0
  0
ENDTAB
  0
TABLE
  2
APPID
  5
9
330
0
100
AcDbSymbolTable
 70
    12
  0
APPID
  5
12
330
9
100
AcDbSymbolTableRecord
100
AcDbRegAppTableRecord
  2
ACAD
 70
     0
  0
APPID
  5
2D8
330
9
100
AcDbSymbolTableRecord
100
AcDbRegAppTableRecord
  2
AcAecLayerStandard
 70
     0
  0
APPID
  5
35B
330
9
100
AcDbSymbolTableRecord
100
AcDbRegAppTableRecord
  2
ACAD_NAV_VCDISPLAY
 70
     0
  0
APPID
  5
7B2
330
9
100
AcDbSymbolTableRecord
100
AcDbRegAppTableRecord
  2
ACAD_PSEXT
 70
     0
  0
APPID
  5
7D6
330
9
100
AcDbSymbolTableRecord
100
AcDbRegAppTableRecord
  2
ACAD_DSTYLE_DIMRADIAL_EXTENSION
 70
     0
  0
APPID
  5
897
330
9
100
AcDbSymbolTableRecord
100
AcDbRegAppTableRecord
  2
ACAD_DSTYLE_DIMJAG
 70
     0
  0
APPID
  5
898
330
9
100
AcDbSymbolTableRecord
100
AcDbRegAppTableRecord
  2
ACAD_DSTYLE_DIMTALN
 70
     0
  0
APPID
  5
96B
330
9
100
AcDbSymbolTableRecord
100
AcDbRegAppTableRecord
  2
AcadAnnoMonitorAlertIconDisabled
 70
     0
  0
APPID
  5
96C
330
9
100
AcDbSymbolTableRecord
100
AcDbRegAppTableRecord
  2
ACAD_EXEMPT_FROM_CAD_STANDARDS
 70
     0
  0
APPID
  5
993
330
9
100
AcDbSymbolTableRecord
100
AcDbRegAppTableRecord
  2
AcadAnnoPO
 70
     0
  0
APPID
  5
211F
330
9
100
AcDbSymbolTableRecord
100
AcDbRegAppTableRecord
  2
AcadAnnotative
 70
     0
  0
APPID
  5
2120
330
9
100
AcDbSymbolTableRecord
100
AcDbRegAppTableRecord
  2
AcCmTransparency
 70
     0
  0
ENDTAB
  0
TABLE
  2
DIMSTYLE
  5
A
330
0
100
AcDbSymbolTable
 70
     1
100
AcDbDimStyleTable
 71
     1
340
27
  0
DIMSTYLE
105
27
102
{ACAD_REACTORS
330
48D6
330
4842
330
4825
330
4957
330
4A91
330
4A9F
330
490C
330
48F3
330
4900
330
4EDE
102
}
330
A
100
AcDbSymbolTableRecord
100
AcDbDimStyleTableRecord
  2
ISO-25
 70
     0
 41
2.5
 42
0.625
 43
3.75
 44
1.25
 73
     0
 74
     0
 77
     1
 78
     8
140
2.5
141
2.5
143
0.0393700787
147
0.5
171
     3
172
     1
271
     2
272
     2
274
     3
278
    44
283
     0
284
     8
340
11
1001
ACAD_DSTYLE_DIMJAG
1070
   388
1040
1.5
1001
ACAD_DSTYLE_DIMTALN
1070
   392
1070
     0
  0
ENDTAB
  0
TABLE
  2
BLOCK_RECORD
  5
1
330
0
100
AcDbSymbolTable
 70
    11
  0
BLOCK_RECORD
  5
1F
102
{ACAD_XDICTIONARY
360
EF1
102
}
330
1
100
AcDbSymbolTableRecord
100
AcDbBlockTableRecord
  2
*Model_Space
340
22
 70
     0
280
     1
281
     0
  0
BLOCK_RECORD
  5
1B
330
1
100
AcDbSymbolTableRecord
100
AcDbBlockTableRecord
  2
*Paper_Space
340
1E
 70
     0
280
     1
281
     0
  0
BLOCK_RECORD
  5
23
330
1
100
AcDbSymbolTableRecord
100
AcDbBlockTableRecord
  2
*Paper_Space0
340
26
 70
     0
280
     1
281
     0
  0
BLOCK_RECORD
  5
4827
330
1
100
AcDbSymbolTableRecord
100
AcDbBlockTableRecord
  2
*D1
340
0
 70
     0
280
     1
281
     0
  0
BLOCK_RECORD
  5
4843
330
1
100
AcDbSymbolTableRecord
100
AcDbBlockTableRecord
  2
*D2
340
0
 70
     0
280
     1
281
     0
  0
BLOCK_RECORD
  5
48D7
330
1
100
AcDbSymbolTableRecord
100
AcDbBlockTableRecord
  2
*D3
340
0
 70
     0
280
     1
281
     0
  0
BLOCK_RECORD
  5
48F4
330
1
100
AcDbSymbolTableRecord
100
AcDbBlockTableRecord
  2
*D4
340
0
 70
     0
280
     1
281
     0
  0
BLOCK_RECORD
  5
4901
330
1
100
AcDbSymbolTableRecord
100
AcDbBlockTableRecord
  2
*D5
340
0
 70
     0
280
     1
281
     0
  0
BLOCK_RECORD
  5
490D
330
1
100
AcDbSymbolTableRecord
100
AcDbBlockTableRecord
  2
*D6
340
0
 70
     0
280
     1
281
     0
  0
BLOCK_RECORD
  5
4958
330
1
100
AcDbSymbolTableRecord
100
AcDbBlockTableRecord
  2
*D7
340
0
 70
     0
280
     1
281
     0
  0
BLOCK_RECORD
  5
4A92
330
1
100
AcDbSymbolTableRecord
100
AcDbBlockTableRecord
  2
*D8
340
0
 70
     0
280
     1
281
     0
  0
BLOCK_RECORD
  5
4AA0
330
1
100
AcDbSymbolTableRecord
100
AcDbBlockTableRecord
  2
*D9
340
0
 70
     0
280
     1
281
     0
  0
BLOCK_RECORD
  5
4EDF
330
1
100
AcDbSymbolTableRecord
100
AcDbBlockTableRecord
  2
*D10
340
0
 70
     0
280
     1
281
     0
  0
ENDTAB
  0
ENDSEC
  0
SECTION
  2
BLOCKS
  0
BLOCK
  5
20
330
1F
100
AcDbEntity
  8
0
100
AcDbBlockBegin
  2
*Model_Space
 70
     0
 10
0.0
 20
0.0
 30
0.0
  3
*Model_Space
  1

  0
ENDBLK
  5
21
330
1F
100
AcDbEntity
  8
0
100
AcDbBlockEnd
  0
BLOCK
  5
1C
330
1B
100
AcDbEntity
 67
     1
  8
0
100
AcDbBlockBegin
  2
*Paper_Space
 70
     0
 10
0.0
 20
0.0
 30
0.0
  3
*Paper_Space
  1

  0
ENDBLK
  5
1D
330
1B
100
AcDbEntity
 67
     1
  8
0
100
AcDbBlockEnd
  0
BLOCK
  5
24
330
23
100
AcDbEntity
 67
     1
  8
0
100
AcDbBlockBegin
  2
*Paper_Space0
 70
     0
 10
0.0
 20
0.0
 30
0.0
  3
*Paper_Space0
  1

  0
ENDBLK
  5
25
330
23
100
AcDbEntity
 67
     1
  8
0
100
AcDbBlockEnd
  0
BLOCK
  5
4828
330
4827
100
AcDbEntity
  8
0
100
AcDbBlockBegin
  2
*D1
 70
     1
 10
0.0
 20
0.0
 30
0.0
  3
*D1
  1

  0
LINE
  5
4F91
330
4827
100
AcDbEntity
  8
BEM
 62
     0
440
 16777216
370
    -2
100
AcDbLine
 10
73.55242028253016
 20
51.17762040738156
 30
0.0
 11
73.55242028253016
 21
66.373819050126
 31
0.0
  0
LINE
  5
4F92
330
4827
100
AcDbEntity
  8
BEM
 62
     0
440
 16777216
370
    -2
100
AcDbLine
 10
173.5524202825302
 20
51.18763770168154
 30
0.0
 11
173.5524202825302
 21
66.373819050126
 31
0.0
  0
LINE
  5
4F93
330
4827
100
AcDbEntity
  8
BEM
 62
     0
440
 16777216
370
    -2
100
AcDbLine
 10
76.05242028253016
 20
65.373819050126
 30
0.0
 11
171.0524202825302
 21
65.373819050126
 31
0.0
  0
SOLID
  5
4F94
330
4827
100
AcDbEntity
  8
BEM
 62
     0
440
 16777216
100
AcDbTrace
 10
76.05242028253016
 20
65.79048571679267
 30
0.0
 11
76.05242028253016
 21
64.95715238345933
 31
0.0
 12
73.55242028253016
 22
65.373819050126
 32
0.0
 13
73.55242028253016
 23
65.373819050126
 33
0.0
  0
SOLID
  5
4F95
330
4827
100
AcDbEntity
  8
BEM
 62
     0
440
 16777216
100
AcDbTrace
 10
171.0524202825302
 20
65.79048571679267
 30
0.0
 11
171.0524202825302
 21
64.95715238345933
 31
0.0
 12
173.5524202825302
 22
65.373819050126
 32
0.0
 13
173.5524202825302
 23
65.373819050126
 33
0.0
  0
MTEXT
  5
4F96
330
4827
100
AcDbEntity
  8
BEM
 62
     0
440
 16777216
100
AcDbMText
 10
123.5524202825301
 20
67.15025151943023
 30
0.0
 40
2.5
 41
0.0
 46
0.0
 71
     5
 72
     1
  1
100
 73
     1
 44
1.0
  0
POINT
  5
4F97
330
4827
100
AcDbEntity
  8
Defpoints
 62
     0
440
 16777216
100
AcDbPoint
 10
73.55242028253016
 20
50.17762040738156
 30
0.0
  0
POINT
  5
4F98
330
4827
100
AcDbEntity
  8
Defpoints
 62
     0
440
 16777216
100
AcDbPoint
 10
173.5524202825302
 20
50.18763770168154
 30
0.0
  0
POINT
  5
4F99
330
4827
100
AcDbEntity
  8
Defpoints
 62
     0
440
 16777216
100
AcDbPoint
 10
173.5524202825302
 20
65.373819050126
 30
0.0
  0
ENDBLK
  5
4829
330
4827
100
AcDbEntity
  8
0
100
AcDbBlockEnd
  0
BLOCK
  5
4844
330
4843
100
AcDbEntity
  8
0
100
AcDbBlockBegin
  2
*D2
 70
     1
 10
0.0
 20
0.0
 30
0.0
  3
*D2
  1

  0
LINE
  5
4A7E
330
4843
100
AcDbEntity
  8
BEM
 62
     0
440
 16777216
370
    -2
100
AcDbLine
 10
120.4274200092301
 20
11.52758497548156
 30
0.0
 11
120.4274200092301
 21
0.3756439758527641
 31
0.0
  0
LINE
  5
4A7F
330
4843
100
AcDbEntity
  8
BEM
 62
     0
440
 16777216
370
    -2
100
AcDbLine
 10
126.6774196367302
 20
11.52758497548156
 30
0.0
 11
126.6774196367302
 21
0.3756439758527641
 31
0.0
  0
LINE
  5
4A80
330
4843
100
AcDbEntity
  8
BEM
 62
     0
440
 16777216
370
    -2
100
AcDbLine
 10
122.9274200092302
 20
1.375643975852763
 30
0.0
 11
124.1774196367302
 21
1.375643975852763
 31
0.0
  0
LINE
  5
4A81
330
4843
100
AcDbEntity
  8
BEM
 62
     0
440
 16777216
370
    -2
100
AcDbLine
 10
126.6774196367302
 20
1.375643975852763
 30
0.0
 11
136.7036815739744
 21
1.375643975852763
 31
0.0
  0
SOLID
  5
4A82
330
4843
100
AcDbEntity
  8
BEM
 62
     0
440
 16777216
100
AcDbTrace
 10
122.9274200092302
 20
1.792310642519429
 30
0.0
 11
122.9274200092302
 21
0.9589773091860964
 31
0.0
 12
120.4274200092301
 22
1.375643975852763
 32
0.0
 13
120.4274200092301
 23
1.375643975852763
 33
0.0
  0
SOLID
  5
4A83
330
4843
100
AcDbEntity
  8
BEM
 62
     0
440
 16777216
100
AcDbTrace
 10
124.1774196367302
 20
1.792310642519429
 30
0.0
 11
124.1774196367302
 21
0.9589773091860964
 31
0.0
 12
126.6774196367302
 22
1.375643975852763
 32
0.0
 13
126.6774196367302
 23
1.375643975852763
 33
0.0
  0
MTEXT
  5
4A84
330
4843
100
AcDbEntity
  8
BEM
 62
     0
440
 16777216
100
AcDbMText
 10
132.9405506053523
 20
3.378031424693145
 30
0.0
 40
2.5
 41
0.0
 46
0.0
 71
     5
 72
     1
  1
6,25
 73
     1
 44
1.0
  0
POINT
  5
4A85
330
4843
100
AcDbEntity
  8
Defpoints
 62
     0
440
 16777216
100
AcDbPoint
 10
120.4274200092301
 20
12.52758497548156
 30
0.0
  0
POINT
  5
4A86
330
4843
100
AcDbEntity
  8
Defpoints
 62
     0
440
 16777216
100
AcDbPoint
 10
126.6774196367302
 20
12.52758497548156
 30
0.0
  0
POINT
  5
4A87
330
4843
100
AcDbEntity
  8
Defpoints
 62
     0
440
 16777216
100
AcDbPoint
 10
126.6774196367302
 20
1.375643975852763
 30
0.0
  0
ENDBLK
  5
4845
330
4843
100
AcDbEntity
  8
0
100
AcDbBlockEnd
  0
BLOCK
  5
48D8
330
48D7
100
AcDbEntity
  8
0
100
AcDbBlockBegin
  2
*D3
 70
     1
 10
0.0
 20
0.0
 30
0.0
  3
*D3
  1

  0
LINE
  5
4C6C
330
48D7
100
AcDbEntity
  8
BEM
 62
     0
440
 16777216
370
    -2
100
AcDbLine
 10
48.55242028253016
 20
13.64257703808156
 30
0.0
 11
48.55242028253016
 21
-5.144356024147235
 31
0.0
  0
LINE
  5
4C6D
330
48D7
100
AcDbEntity
  8
BEM
 62
     0
440
 16777216
370
    -2
100
AcDbLine
 10
198.5524202825302
 20
13.67262854438156
 30
0.0
 11
198.5524202825302
 21
-5.144356024147235
 31
0.0
  0
LINE
  5
4C6E
330
48D7
100
AcDbEntity
  8
BEM
 62
     0
440
 16777216
370
    -2
100
AcDbLine
 10
51.05242028253016
 20
-4.144356024147236
 30
0.0
 11
196.0524202825302
 21
-4.144356024147236
 31
0.0
  0
SOLID
  5
4C6F
330
48D7
100
AcDbEntity
  8
BEM
 62
     0
440
 16777216
100
AcDbTrace
 10
51.05242028253016
 20
-3.727689357480569
 30
0.0
 11
51.05242028253016
 21
-4.561022690813903
 31
0.0
 12
48.55242028253016
 22
-4.144356024147236
 32
0.0
 13
48.55242028253016
 23
-4.144356024147236
 33
0.0
  0
SOLID
  5
4C70
330
48D7
100
AcDbEntity
  8
BEM
 62
     0
440
 16777216
100
AcDbTrace
 10
196.0524202825302
 20
-3.727689357480569
 30
0.0
 11
196.0524202825302
 21
-4.561022690813903
 31
0.0
 12
198.5524202825302
 22
-4.144356024147236
 32
0.0
 13
198.5524202825302
 23
-4.144356024147236
 33
0.0
  0
MTEXT
  5
4C71
330
48D7
100
AcDbEntity
  8
BEM
 62
     0
440
 16777216
100
AcDbMText
 10
123.5524202825301
 20
-2.367923554843007
 30
0.0
 40
2.5
 41
0.0
 46
0.0
 71
     5
 72
     1
  1
150
 73
     1
 44
1.0
  0
POINT
  5
4C72
330
48D7
100
AcDbEntity
  8
Defpoints
 62
     0
440
 16777216
100
AcDbPoint
 10
48.55242028253016
 20
14.64257703808156
 30
0.0
  0
POINT
  5
4C73
330
48D7
100
AcDbEntity
  8
Defpoints
 62
     0
440
 16777216
100
AcDbPoint
 10
198.5524202825302
 20
14.67262854438156
 30
0.0
  0
POINT
  5
4C74
330
48D7
100
AcDbEntity
  8
Defpoints
 62
     0
440
 16777216
100
AcDbPoint
 10
198.5524202825302
 20
-4.144356024147236
 30
0.0
  0
ENDBLK
  5
48D9
330
48D7
100
AcDbEntity
  8
0
100
AcDbBlockEnd
  0
BLOCK
  5
48F5
330
48F4
100
AcDbEntity
  8
0
100
AcDbBlockBegin
  2
*D4
 70
     1
 10
0.0
 20
0.0
 30
0.0
  3
*D4
  1

  0
LINE
  5
4F69
330
48F4
100
AcDbEntity
  8
BEM
 62
     0
440
 16777216
370
    -2
100
AcDbLine
 10
174.5524202825302
 20
52.12762040738156
 30
0.0
 11
239.5052546353202
 21
52.12762040738154
 31
0.0
  0
LINE
  5
4F6A
330
48F4
100
AcDbEntity
  8
BEM
 62
     0
440
 16777216
370
    -2
100
AcDbLine
 10
224.5524166565302
 20
33.37757460330975
 30
0.0
 11
239.5052546353202
 21
33.37757460330975
 31
0.0
  0
LINE
  5
4F6B
330
48F4
100
AcDbEntity
  8
BEM
 62
     0
440
 16777216
370
    -2
100
AcDbLine
 10
238.5052546353202
 20
49.62762040738154
 30
0.0
 11
238.5052546353202
 21
35.87757460330975
 31
0.0
  0
SOLID
  5
4F6C
330
48F4
100
AcDbEntity
  8
BEM
 62
     0
440
 16777216
100
AcDbTrace
 10
238.0885879686535
 20
49.62762040738154
 30
0.0
 11
238.9219213019868
 21
49.62762040738154
 31
0.0
 12
238.5052546353202
 22
52.12762040738154
 32
0.0
 13
238.5052546353202
 23
52.12762040738154
 33
0.0
  0
SOLID
  5
4F6D
330
48F4
100
AcDbEntity
  8
BEM
 62
     0
440
 16777216
100
AcDbTrace
 10
238.0885879686535
 20
35.87757460330975
 30
0.0
 11
238.9219213019868
 21
35.87757460330975
 31
0.0
 12
238.5052546353202
 22
33.37757460330975
 32
0.0
 13
238.5052546353202
 23
33.37757460330975
 33
0.0
  0
MTEXT
  5
4F6E
330
48F4
100
AcDbEntity
  8
BEM
 62
     0
440
 16777216
100
AcDbMText
 10
236.5028671864798
 20
42.77259750534567
 30
0.0
 40
2.5
 41
0.0
 46
0.0
 71
     5
 72
     1
  1
18,75
 11
0.0000000000000001
 21
1.0
 31
0.0
 73
     1
 44
1.0
  0
POINT
  5
4F6F
330
48F4
100
AcDbEntity
  8
Defpoints
 62
     0
440
 16777216
100
AcDbPoint
 10
173.5524202825302
 20
52.12762040738156
 30
0.0
  0
POINT
  5
4F70
330
48F4
100
AcDbEntity
  8
Defpoints
 62
     0
440
 16777216
100
AcDbPoint
 10
223.5524166565302
 20
33.37757460330975
 30
0.0
  0
POINT
  5
4F71
330
48F4
100
AcDbEntity
  8
Defpoints
 62
     0
440
 16777216
100
AcDbPoint
 10
238.5052546353202
 20
33.37757460330975
 30
0.0
  0
ENDBLK
  5
48F6
330
48F4
100
AcDbEntity
  8
0
100
AcDbBlockEnd
  0
BLOCK
  5
4902
330
4901
100
AcDbEntity
  8
0
100
AcDbBlockBegin
  2
*D5
 70
     1
 10
0.0
 20
0.0
 30
0.0
  3
*D5
  1

  0
LINE
  5
4F1B
330
4901
100
AcDbEntity
  8
BEM
 62
     0
440
 16777216
370
    -2
100
AcDbLine
 10
199.5524202825302
 20
14.62392854438156
 30
0.0
 11
239.5052546353202
 21
14.62392854438155
 31
0.0
  0
LINE
  5
4F1C
330
4901
100
AcDbEntity
  8
BEM
 62
     0
440
 16777216
370
    -2
100
AcDbLine
 10
238.5052546353202
 20
17.12392854438155
 30
0.0
 11
238.5052546353202
 21
30.87757460330975
 31
0.0
  0
SOLID
  5
4F1D
330
4901
100
AcDbEntity
  8
BEM
 62
     0
440
 16777216
100
AcDbTrace
 10
238.0885879686535
 20
17.12392854438155
 30
0.0
 11
238.9219213019868
 21
17.12392854438155
 31
0.0
 12
238.5052546353202
 22
14.62392854438155
 32
0.0
 13
238.5052546353202
 23
14.62392854438155
 33
0.0
  0
SOLID
  5
4F1E
330
4901
100
AcDbEntity
  8
BEM
 62
     0
440
 16777216
100
AcDbTrace
 10
238.0885879686535
 20
30.87757460330975
 30
0.0
 11
238.9219213019868
 21
30.87757460330975
 31
0.0
 12
238.5052546353202
 22
33.37757460330975
 32
0.0
 13
238.5052546353202
 23
33.37757460330975
 33
0.0
  0
MTEXT
  5
4F1F
330
4901
100
AcDbEntity
  8
BEM
 62
     0
440
 16777216
100
AcDbMText
 10
236.5028671864798
 20
23.13481728721629
 30
0.0
 40
2.5
 41
0.0
 46
0.0
 71
     5
 72
     1
  1
18,75
 11
0.0000000000000001
 21
1.0
 31
0.0
 73
     1
 44
1.0
  0
POINT
  5
4F20
330
4901
100
AcDbEntity
  8
Defpoints
 62
     0
440
 16777216
100
AcDbPoint
 10
198.5524202825302
 20
14.62392854438156
 30
0.0
  0
POINT
  5
4F21
330
4901
100
AcDbEntity
  8
Defpoints
 62
     0
440
 16777216
100
AcDbPoint
 10
238.5052546353202
 20
33.37757460330975
 30
0.0
  0
POINT
  5
4F22
330
4901
100
AcDbEntity
  8
Defpoints
 62
     0
440
 16777216
100
AcDbPoint
 10
238.5052546353202
 20
33.37757460330975
 30
0.0
  0
ENDBLK
  5
4903
330
4901
100
AcDbEntity
  8
0
100
AcDbBlockEnd
  0
BLOCK
  5
490E
330
490D
100
AcDbEntity
  8
0
100
AcDbBlockBegin
  2
*D6
 70
     1
 10
0.0
 20
0.0
 30
0.0
  3
*D6
  1

  0
LINE
  5
4FA3
330
490D
100
AcDbEntity
  8
BEM
 62
     0
440
 16777216
370
    -2
100
AcDbLine
 10
215.6826400709221
 20
58.37758564748156
 30
0.0
 11
245.0052546353202
 21
58.37758564748156
 31
0.0
  0
LINE
  5
4FA4
330
490D
100
AcDbEntity
  8
BEM
 62
     0
440
 16777216
370
    -2
100
AcDbLine
 10
218.2162328424099
 20
8.373451425087701
 30
0.0
 11
245.0052546353202
 21
8.373451425087692
 31
0.0
  0
LINE
  5
4FA5
330
490D
100
AcDbEntity
  8
BEM
 62
     0
440
 16777216
370
    -2
100
AcDbLine
 10
244.0052546353202
 20
55.87758564748156
 30
0.0
 11
244.0052546353202
 21
10.87345142508769
 31
0.0
  0
SOLID
  5
4FA6
330
490D
100
AcDbEntity
  8
BEM
 62
     0
440
 16777216
100
AcDbTrace
 10
243.5885879686535
 20
55.87758564748156
 30
0.0
 11
244.4219213019868
 21
55.87758564748156
 31
0.0
 12
244.0052546353202
 22
58.37758564748156
 32
0.0
 13
244.0052546353202
 23
58.37758564748156
 33
0.0
  0
SOLID
  5
4FA7
330
490D
100
AcDbEntity
  8
BEM
 62
     0
440
 16777216
100
AcDbTrace
 10
243.5885879686535
 20
10.87345142508769
 30
0.0
 11
244.4219213019868
 21
10.87345142508769
 31
0.0
 12
244.0052546353202
 22
8.373451425087692
 32
0.0
 13
244.0052546353202
 23
8.373451425087692
 33
0.0
  0
MTEXT
  5
4FA8
330
490D
100
AcDbEntity
  8
BEM
 62
     0
440
 16777216
100
AcDbMText
 10
242.228822166016
 20
33.37551853628467
 30
0.0
 40
2.5
 41
0.0
 46
0.0
 71
     5
 72
     1
  1
50
 11
0.0000000000000001
 21
1.0
 31
0.0
 73
     1
 44
1.0
  0
POINT
  5
4FA9
330
490D
100
AcDbEntity
  8
Defpoints
 62
     0
440
 16777216
100
AcDbPoint
 10
214.6826400709222
 20
58.37758564748156
 30
0.0
  0
POINT
  5
4FAA
330
490D
100
AcDbEntity
  8
Defpoints
 62
     0
440
 16777216
100
AcDbPoint
 10
217.2162328424099
 20
8.373451425087701
 30
0.0
  0
POINT
  5
4FAB
330
490D
100
AcDbEntity
  8
Defpoints
 62
     0
440
 16777216
100
AcDbPoint
 10
244.0052546353202
 20
8.373451425087692
 30
0.0
  0
ENDBLK
  5
490F
330
490D
100
AcDbEntity
  8
0
100
AcDbBlockEnd
  0
BLOCK
  5
4959
330
4958
100
AcDbEntity
  8
0
100
AcDbBlockBegin
  2
*D7
 70
     1
 10
0.0
 20
0.0
 30
0.0
  3
*D7
  1

  0
LINE
  5
4ADD
330
4958
100
AcDbEntity
  8
BEM
 62
     0
440
 16777216
370
    -2
100
AcDbLine
 10
23.55242112683018
 20
54.46725773282486
 30
0.0
 11
23.55242112683018
 21
71.37380175582601
 31
0.0
  0
LINE
  5
4ADE
330
4958
100
AcDbEntity
  8
BEM
 62
     0
440
 16777216
370
    -2
100
AcDbLine
 10
223.5524166565302
 20
54.46725773282486
 30
0.0
 11
223.5524166565302
 21
71.37380175582601
 31
0.0
  0
LINE
  5
4ADF
330
4958
100
AcDbEntity
  8
BEM
 62
     0
440
 16777216
370
    -2
100
AcDbLine
 10
26.05242112683018
 20
70.37380175582601
 30
0.0
 11
221.0524166565302
 21
70.37380175582601
 31
0.0
  0
SOLID
  5
4AE0
330
4958
100
AcDbEntity
  8
BEM
 62
     0
440
 16777216
100
AcDbTrace
 10
26.05242112683018
 20
70.79046842249268
 30
0.0
 11
26.05242112683018
 21
69.95713508915933
 31
0.0
 12
23.55242112683018
 22
70.37380175582601
 32
0.0
 13
23.55242112683018
 23
70.37380175582601
 33
0.0
  0
SOLID
  5
4AE1
330
4958
100
AcDbEntity
  8
BEM
 62
     0
440
 16777216
100
AcDbTrace
 10
221.0524166565302
 20
70.79046842249268
 30
0.0
 11
221.0524166565302
 21
69.95713508915933
 31
0.0
 12
223.5524166565302
 22
70.37380175582601
 32
0.0
 13
223.5524166565302
 23
70.37380175582601
 33
0.0
  0
MTEXT
  5
4AE2
330
4958
100
AcDbEntity
  8
BEM
 62
     0
440
 16777216
100
AcDbMText
 10
123.5524188916802
 20
72.15023422513024
 30
0.0
 40
2.5
 41
0.0
 46
0.0
 71
     5
 72
     1
  1
200
 73
     1
 44
1.0
  0
POINT
  5
4AE3
330
4958
100
AcDbEntity
  8
Defpoints
 62
     0
440
 16777216
100
AcDbPoint
 10
23.55242112683018
 20
53.46725773282486
 30
0.0
  0
POINT
  5
4AE4
330
4958
100
AcDbEntity
  8
Defpoints
 62
     0
440
 16777216
100
AcDbPoint
 10
223.5524166565302
 20
53.46725773282486
 30
0.0
  0
POINT
  5
4AE5
330
4958
100
AcDbEntity
  8
Defpoints
 62
     0
440
 16777216
100
AcDbPoint
 10
223.5524166565302
 20
70.37380175582601
 30
0.0
  0
ENDBLK
  5
495A
330
4958
100
AcDbEntity
  8
0
100
AcDbBlockEnd
  0
BLOCK
  5
4A93
330
4A92
100
AcDbEntity
  8
0
100
AcDbBlockBegin
  2
*D8
 70
     1
 10
0.0
 20
0.0
 30
0.0
  3
*D8
  1

  0
LINE
  5
4AAE
330
4A92
100
AcDbEntity
  8
BEM
 62
     0
440
 16777216
370
    -2
100
AcDbLine
 10
22.54262361333019
 20
-41.26062476009934
 30
0.0
 11
18.48579735253872
 21
-41.26062476009934
 31
0.0
  0
LINE
  5
4AAF
330
4A92
100
AcDbEntity
  8
BEM
 62
     0
440
 16777216
370
    -2
100
AcDbLine
 10
42.52562466673018
 20
-35.26062474889935
 30
0.0
 11
18.48579735253872
 21
-35.26062474889935
 31
0.0
  0
LINE
  5
4AB0
330
4A92
100
AcDbEntity
  8
BEM
 62
     0
440
 16777216
370
    -2
100
AcDbLine
 10
19.48579735253872
 20
-38.76062476009935
 30
0.0
 11
19.48579735253872
 21
-37.76062474889935
 31
0.0
  0
SOLID
  5
4AB1
330
4A92
100
AcDbEntity
  8
BEM
 62
     0
440
 16777216
100
AcDbTrace
 10
19.06913068587206
 20
-38.76062476009935
 30
0.0
 11
19.90246401920539
 21
-38.76062476009935
 31
0.0
 12
19.48579735253872
 22
-41.26062476009934
 32
0.0
 13
19.48579735253872
 23
-41.26062476009934
 33
0.0
  0
SOLID
  5
4AB2
330
4A92
100
AcDbEntity
  8
BEM
 62
     0
440
 16777216
100
AcDbTrace
 10
19.06913068587206
 20
-37.76062474889935
 30
0.0
 11
19.90246401920539
 21
-37.76062474889935
 31
0.0
 12
19.48579735253872
 22
-35.26062474889935
 32
0.0
 13
19.48579735253872
 23
-35.26062474889935
 33
0.0
  0
MTEXT
  5
4AB3
330
4A92
100
AcDbEntity
  8
BEM
 62
     0
440
 16777216
100
AcDbMText
 10
17.7093648832345
 20
-38.26062475449934
 30
0.0
 40
2.5
 41
0.0
 46
0.0
 71
     5
 72
     1
  1
6
 11
0.0000000000000001
 21
1.0
 31
0.0
 73
     1
 44
1.0
  0
POINT
  5
4AB4
330
4A92
100
AcDbEntity
  8
Defpoints
 62
     0
440
 16777216
100
AcDbPoint
 10
23.54262361333019
 20
-41.26062476009934
 30
0.0
  0
POINT
  5
4AB5
330
4A92
100
AcDbEntity
  8
Defpoints
 62
     0
440
 16777216
100
AcDbPoint
 10
43.52562466673018
 20
-35.26062474889935
 30
0.0
  0
POINT
  5
4AB6
330
4A92
100
AcDbEntity
  8
Defpoints
 62
     0
440
 16777216
100
AcDbPoint
 10
19.48579735253872
 20
-35.26062474889935
 30
0.0
  0
ENDBLK
  5
4A94
330
4A92
100
AcDbEntity
  8
0
100
AcDbBlockEnd
  0
BLOCK
  5
4AA1
330
4AA0
100
AcDbEntity
  8
0
100
AcDbBlockBegin
  2
*D9
 70
     1
 10
0.0
 20
0.0
 30
0.0
  3
*D9
  1

  0
LINE
  5
4AB7
330
4AA0
100
AcDbEntity
  8
BEM
 62
     0
440
 16777216
370
    -2
100
AcDbLine
 10
22.54262361333019
 20
-41.26062476009934
 30
0.0
 11
18.49908216661822
 21
-41.26062476009934
 31
0.0
  0
LINE
  5
4AB8
330
4AA0
100
AcDbEntity
  8
BEM
 62
     0
440
 16777216
370
    -2
100
AcDbLine
 10
22.54262361333019
 20
-42.86062470509932
 30
0.0
 11
18.49908216661822
 21
-42.86062470509932
 31
0.0
  0
LINE
  5
4AB9
330
4AA0
100
AcDbEntity
  8
BEM
 62
     0
440
 16777216
370
    -2
100
AcDbLine
 10
19.49908216661822
 20
-38.76062476009935
 30
0.0
 11
19.49908216661822
 21
-36.26062476009935
 31
0.0
  0
LINE
  5
4ABA
330
4AA0
100
AcDbEntity
  8
BEM
 62
     0
440
 16777216
370
    -2
100
AcDbLine
 10
19.49908216661822
 20
-45.36062470509932
 30
0.0
 11
19.49908216661822
 21
-53.17508582378963
 31
0.0
  0
LINE
  5
4ABB
330
4AA0
100
AcDbEntity
  8
BEM
 62
     0
440
 16777216
370
    -2
100
AcDbLine
 10
19.49908216661822
 20
-41.26062476009934
 30
0.0
 11
19.49908216661822
 21
-42.86062470509932
 31
0.0
  0
SOLID
  5
4ABC
330
4AA0
100
AcDbEntity
  8
BEM
 62
     0
440
 16777216
100
AcDbTrace
 10
19.08241549995156
 20
-38.76062476009935
 30
0.0
 11
19.91574883328489
 21
-38.76062476009935
 31
0.0
 12
19.49908216661822
 22
-41.26062476009934
 32
0.0
 13
19.49908216661822
 23
-41.26062476009934
 33
0.0
  0
SOLID
  5
4ABD
330
4AA0
100
AcDbEntity
  8
BEM
 62
     0
440
 16777216
100
AcDbTrace
 10
19.08241549995155
 20
-45.36062470509932
 30
0.0
 11
19.91574883328489
 21
-45.36062470509932
 31
0.0
 12
19.49908216661822
 22
-42.86062470509932
 32
0.0
 13
19.49908216661822
 23
-42.86062470509932
 33
0.0
  0
MTEXT
  5
4ABE
330
4AA0
100
AcDbEntity
  8
BEM
 62
     0
440
 16777216
100
AcDbMText
 10
17.49669471777785
 20
-50.51785526444447
 30
0.0
 40
2.5
 41
0.0
 46
0.0
 71
     5
 72
     1
  1
1,6
 11
0.0000000000000001
 21
1.0
 31
0.0
 73
     1
 44
1.0
  0
POINT
  5
4ABF
330
4AA0
100
AcDbEntity
  8
Defpoints
 62
     0
440
 16777216
100
AcDbPoint
 10
23.54262361333019
 20
-41.26062476009934
 30
0.0
  0
POINT
  5
4AC0
330
4AA0
100
AcDbEntity
  8
Defpoints
 62
     0
440
 16777216
100
AcDbPoint
 10
23.54262361333019
 20
-42.86062470509932
 30
0.0
  0
POINT
  5
4AC1
330
4AA0
100
AcDbEntity
  8
Defpoints
 62
     0
440
 16777216
100
AcDbPoint
 10
19.49908216661822
 20
-42.86062470509932
 30
0.0
  0
ENDBLK
  5
4AA2
330
4AA0
100
AcDbEntity
  8
0
100
AcDbBlockEnd
  0
BLOCK
  5
4EE0
330
4EDF
100
AcDbEntity
  8
0
100
AcDbBlockBegin
  2
*D10
 70
     1
 10
0.0
 20
0.0
 30
0.0
  3
*D10
  1

  0
LINE
  5
4EE2
330
4EDF
100
AcDbEntity
  8
BEM
 62
     0
440
 16777216
370
    -2
100
AcDbLine
 10
124.5524202825301
 20
45.87760316458156
 30
0.0
 11
230.8097607315726
 21
45.87760316458154
 31
0.0
  0
LINE
  5
4EE3
330
4EDF
100
AcDbEntity
  8
BEM
 62
     0
440
 16777216
370
    -2
100
AcDbLine
 10
224.5524166565302
 20
33.37546158978839
 30
0.0
 11
230.8097607315726
 21
33.37546158978839
 31
0.0
  0
LINE
  5
4EE4
330
4EDF
100
AcDbEntity
  8
BEM
 62
     0
440
 16777216
370
    -2
100
AcDbLine
 10
229.8097607315726
 20
43.37760316458154
 30
0.0
 11
229.8097607315726
 21
35.87546158978839
 31
0.0
  0
SOLID
  5
4EE5
330
4EDF
100
AcDbEntity
  8
BEM
 62
     0
440
 16777216
100
AcDbTrace
 10
229.393094064906
 20
43.37760316458154
 30
0.0
 11
230.2264273982393
 21
43.37760316458154
 31
0.0
 12
229.8097607315726
 22
45.87760316458154
 32
0.0
 13
229.8097607315726
 23
45.87760316458154
 33
0.0
  0
SOLID
  5
4EE6
330
4EDF
100
AcDbEntity
  8
BEM
 62
     0
440
 16777216
100
AcDbTrace
 10
229.393094064906
 20
35.87546158978839
 30
0.0
 11
230.2264273982393
 21
35.87546158978839
 31
0.0
 12
229.8097607315726
 22
33.37546158978839
 32
0.0
 13
229.8097607315726
 23
33.37546158978839
 33
0.0
  0
MTEXT
  5
4EE7
330
4EDF
100
AcDbEntity
  8
BEM
 62
     0
440
 16777216
100
AcDbMText
 10
227.8073732827322
 20
39.626532377185
 30
0.0
 40
2.5
 41
0.0
 46
0.0
 71
     5
 72
     1
  1
12,50
 11
0.0000000000000001
 21
1.0
 31
0.0
 73
     1
 44
1.0
  0
POINT
  5
4EE8
330
4EDF
100
AcDbEntity
  8
Defpoints
 62
     0
440
 16777216
100
AcDbPoint
 10
123.5524202825301
 20
45.87760316458156
 30
0.0
  0
POINT
  5
4EE9
330
4EDF
100
AcDbEntity
  8
Defpoints
 62
     0
440
 16777216
100
AcDbPoint
 10
223.5524166565302
 20
33.37546158978839
 30
0.0
  0
POINT
  5
4EEA
330
4EDF
100
AcDbEntity
  8
Defpoints
 62
     0
440
 16777216
100
AcDbPoint
 10
229.8097607315726
 20
33.37546158978839
 30
0.0
  0
ENDBLK
  5
4EE1
330
4EDF
100
AcDbEntity
  8
0
100
AcDbBlockEnd
  0
ENDSEC
  0
SECTION
  2
ENTITIES
  0
CIRCLE
  5
3DFE
330
1F
100
AcDbEntity
  8
Kontruktion
100
AcDbCircle
 10
198.5524202825302
 20
14.62392854438156
 30
0.0
 40
1.0
  0
CIRCLE
  5
3DFF
330
1F
100
AcDbEntity
  8
Kontruktion
100
AcDbCircle
 10
198.5524202825302
 20
14.62392854438156
 30
0.0
 40
1.774999999999991
  0
CIRCLE
  5
3E00
330
1F
100
AcDbEntity
  8
Kontruktion
100
AcDbCircle
 10
123.5524403391081
 20
14.62392854438156
 30
0.0
 40
1.0
  0
CIRCLE
  5
3E01
330
1F
100
AcDbEntity
  8
Kontruktion
100
AcDbCircle
 10
123.5524403391081
 20
14.62392854438156
 30
0.0
 40
1.774999999999991
  0
CIRCLE
  5
3E02
330
1F
100
AcDbEntity
  8
Kontruktion
100
AcDbCircle
 10
48.55242028253016
 20
14.62392854438156
 30
0.0
 40
1.0
  0
CIRCLE
  5
3E03
330
1F
100
AcDbEntity
  8
Kontruktion
100
AcDbCircle
 10
48.55242028253016
 20
14.62392854438156
 30
0.0
 40
1.774999999999991
  0
CIRCLE
  5
3E04
330
1F
100
AcDbEntity
  8
Kontruktion
100
AcDbCircle
 10
173.5524202825302
 20
52.12762040738156
 30
0.0
 40
1.0
  0
CIRCLE
  5
3E05
330
1F
100
AcDbEntity
  8
Kontruktion
100
AcDbCircle
 10
173.5524202825302
 20
52.12762040738156
 30
0.0
 40
1.775000000000005
  0
CIRCLE
  5
3E06
330
1F
100
AcDbEntity
  8
Kontruktion
100
AcDbCircle
 10
123.5524202825301
 20
45.90760316458156
 30
0.0
 40
1.775000000000005
  0
CIRCLE
  5
3E07
330
1F
100
AcDbEntity
  8
Kontruktion
100
AcDbCircle
 10
123.5524202825301
 20
45.87760316458156
 30
0.0
 40
1.0
  0
CIRCLE
  5
3E08
330
1F
100
AcDbEntity
  8
Kontruktion
100
AcDbCircle
 10
73.55242028253016
 20
52.12762040738156
 30
0.0
 40
1.0
  0
CIRCLE
  5
3E09
330
1F
100
AcDbEntity
  8
Kontruktion
100
AcDbCircle
 10
73.55242028253016
 20
52.12762040738156
 30
0.0
 40
1.775000000000005
  0
CIRCLE
  5
4228
330
1F
100
AcDbEntity
  8
Kontruktion
100
AcDbCircle
 10
173.5524202825302
 20
52.12762040738156
 30
0.0
 40
1.849998839999955
  0
CIRCLE
  5
4229
330
1F
100
AcDbEntity
  8
Kontruktion
100
AcDbCircle
 10
198.5524202825302
 20
14.62392854438156
 30
0.0
 40
1.849998840000012
  0
CIRCLE
  5
422A
330
1F
100
AcDbEntity
  8
Kontruktion
100
AcDbCircle
 10
123.5524403391081
 20
14.62392854438156
 30
0.0
 40
1.849998839999955
  0
CIRCLE
  5
422F
330
1F
100
AcDbEntity
  8
Kontruktion
100
AcDbCircle
 10
73.55242028253016
 20
52.12762040738156
 30
0.0
 40
1.849998840000012
  0
CIRCLE
  5
4230
330
1F
100
AcDbEntity
  8
Kontruktion
100
AcDbCircle
 10
123.5524202825301
 20
45.87760316458156
 30
0.0
 40
1.849998839999983
  0
CIRCLE
  5
4231
330
1F
100
AcDbEntity
  8
Kontruktion
100
AcDbCircle
 10
48.55242028253016
 20
14.62392854438156
 30
0.0
 40
1.849998840000012
  0
LINE
  5
424E
102
{ACAD_REACTORS
330
47DE
102
}
330
1F
100
AcDbEntity
  8
Kontruktion
100
AcDbLine
 10
50.18377641253016
 20
-40.61062470009935
 30
0.0
 11
49.53378031063016
 21
-40.61062470009935
 31
0.0
  0
LINE
  5
4251
102
{ACAD_REACTORS
330
47DE
102
}
330
1F
100
AcDbEntity
  8
Kontruktion
100
AcDbLine
 10
47.64377662943016
 20
-40.61062470009935
 30
0.0
 11
46.99378052763018
 21
-40.61062470009935
 31
0.0
  0
LINE
  5
4254
102
{ACAD_REACTORS
330
47DE
102
}
330
1F
100
AcDbEntity
  8
Kontruktion
100
AcDbLine
 10
45.10377684643017
 20
-40.61062470009935
 30
0.0
 11
44.45378074453017
 21
-40.61062470009935
 31
0.0
  0
LINE
  5
4257
102
{ACAD_REACTORS
330
47DE
102
}
330
1F
100
AcDbEntity
  8
Kontruktion
100
AcDbLine
 10
52.72377619553018
 20
-40.61062470009935
 30
0.0
 11
52.07378009363018
 21
-40.61062470009935
 31
0.0
  0
LINE
  5
425A
102
{ACAD_REACTORS
330
47DE
102
}
330
1F
100
AcDbEntity
  8
Kontruktion
100
AcDbLine
 10
52.07378009363018
 20
-40.11062461809934
 30
0.0
 11
52.72377619553018
 21
-40.11062461809934
 31
0.0
  0
LINE
  5
425D
102
{ACAD_REACTORS
330
47DE
102
}
330
1F
100
AcDbEntity
  8
Kontruktion
100
AcDbLine
 10
44.45378074453017
 20
-40.11062461809934
 30
0.0
 11
45.10377684643017
 21
-40.11062461809934
 31
0.0
  0
LINE
  5
4260
102
{ACAD_REACTORS
330
47DE
102
}
330
1F
100
AcDbEntity
  8
Kontruktion
100
AcDbLine
 10
49.53378031063016
 20
-40.11062461809934
 30
0.0
 11
50.18377641253016
 21
-40.11062461809934
 31
0.0
  0
LINE
  5
4263
102
{ACAD_REACTORS
330
47DE
102
}
330
1F
100
AcDbEntity
  8
Kontruktion
100
AcDbLine
 10
46.99378052763018
 20
-40.11062461809934
 30
0.0
 11
47.64377662943016
 21
-40.11062461809934
 31
0.0
  0
LINE
  5
4266
102
{ACAD_REACTORS
330
47DE
102
}
330
1F
100
AcDbEntity
  8
Kontruktion
100
AcDbLine
 10
50.18377641253016
 20
-39.11062468699933
 30
0.0
 11
49.53378031063016
 21
-39.11062468699933
 31
0.0
  0
LINE
  5
4269
102
{ACAD_REACTORS
330
47DE
102
}
330
1F
100
AcDbEntity
  8
Kontruktion
100
AcDbLine
 10
47.64377662943016
 20
-39.11062468699933
 30
0.0
 11
46.99378052763018
 21
-39.11062468699933
 31
0.0
  0
LINE
  5
426C
102
{ACAD_REACTORS
330
47DE
102
}
330
1F
100
AcDbEntity
  8
Kontruktion
100
AcDbLine
 10
52.72377619553018
 20
-39.11062468699933
 30
0.0
 11
52.07378009363018
 21
-39.11062468699933
 31
0.0
  0
LINE
  5
4272
102
{ACAD_REACTORS
330
47DE
102
}
330
1F
100
AcDbEntity
  8
Kontruktion
100
AcDbLine
 10
45.10377684643017
 20
-39.11062468699933
 30
0.0
 11
44.45378074453017
 21
-39.11062468699933
 31
0.0
  0
LINE
  5
427E
102
{ACAD_REACTORS
330
47DE
102
}
330
1F
100
AcDbEntity
  8
Kontruktion
100
AcDbLine
 10
45.41562089733016
 20
-35.26062474889935
 30
0.0
 11
45.41562089733017
 21
-41.26062476009934
 31
0.0
  0
LINE
  5
4280
102
{ACAD_REACTORS
330
47DE
102
}
330
1F
100
AcDbEntity
  8
Kontruktion
100
AcDbLine
 10
46.68562451413018
 20
-35.26062474889935
 30
0.0
 11
46.68562451413018
 21
-41.26062476009934
 31
0.0
  0
LINE
  5
4281
102
{ACAD_REACTORS
330
47DE
102
}
330
1F
100
AcDbEntity
  8
Kontruktion
100
AcDbLine
 10
43.52562466673018
 20
-35.26062474889935
 30
0.0
 11
43.52562466673018
 21
-41.26062476009934
 31
0.0
  0
LINE
  5
4283
102
{ACAD_REACTORS
330
47DE
102
}
330
1F
100
AcDbEntity
  8
Kontruktion
100
AcDbLine
 10
44.14562473103017
 20
-35.26062474889935
 30
0.0
 11
44.14562473103018
 21
-41.26062476009934
 31
0.0
  0
LINE
  5
4284
102
{ACAD_REACTORS
330
47DE
102
}
330
1F
100
AcDbEntity
  8
Kontruktion
100
AcDbLine
 10
49.22562429713017
 20
-35.26062474889935
 30
0.0
 11
49.22562429713017
 21
-41.26062476009934
 31
0.0
  0
LINE
  5
4285
102
{ACAD_REACTORS
330
47DE
102
}
330
1F
100
AcDbEntity
  8
Kontruktion
100
AcDbLine
 10
47.95562068033018
 20
-35.26062474889935
 30
0.0
 11
47.95562068033018
 21
-41.26062476009934
 31
0.0
  0
LINE
  5
4286
102
{ACAD_REACTORS
330
47DE
102
}
330
1F
100
AcDbEntity
  8
Kontruktion
100
AcDbLine
 10
43.52562466673018
 20
-35.26062474889935
 30
0.0
 11
53.65562031083019
 21
-35.26062474889935
 31
0.0
  0
LINE
  5
4287
102
{ACAD_REACTORS
330
47DE
102
}
330
1F
100
AcDbEntity
  8
Kontruktion
100
AcDbLine
 10
50.49562046333017
 20
-35.26062474889935
 30
0.0
 11
50.49562046333017
 21
-41.26062476009934
 31
0.0
  0
LINE
  5
4288
102
{ACAD_REACTORS
330
47DE
102
}
330
1F
100
AcDbEntity
  8
Kontruktion
100
AcDbLine
 10
51.76562408023016
 20
-35.26062474889935
 30
0.0
 11
51.76562408023016
 21
-41.26062476009934
 31
0.0
  0
LINE
  5
428A
102
{ACAD_REACTORS
330
47DE
102
}
330
1F
100
AcDbEntity
  8
Kontruktion
100
AcDbLine
 10
53.03562024643017
 20
-35.26062474889935
 30
0.0
 11
53.03562024643017
 21
-41.26062476009934
 31
0.0
  0
LINE
  5
428B
102
{ACAD_REACTORS
330
47DE
102
}
330
1F
100
AcDbEntity
  8
Kontruktion
100
AcDbLine
 10
53.65562031083019
 20
-35.26062474889935
 30
0.0
 11
53.65562031083019
 21
-41.26062476009934
 31
0.0
  0
LINE
  5
4291
102
{ACAD_REACTORS
330
47E3
102
}
330
1F
100
AcDbEntity
  8
Kontruktion
100
AcDbLine
 10
195.1356601159302
 20
-40.61062470009935
 30
0.0
 11
194.4856602888301
 21
-40.61062470009935
 31
0.0
  0
LINE
  5
4294
102
{ACAD_REACTORS
330
47E3
102
}
330
1F
100
AcDbEntity
  8
Kontruktion
100
AcDbLine
 10
202.7556594651302
 20
-40.61062470009935
 30
0.0
 11
202.1056596379302
 21
-40.61062470009935
 31
0.0
  0
LINE
  5
4297
102
{ACAD_REACTORS
330
47E3
102
}
330
1F
100
AcDbEntity
  8
Kontruktion
100
AcDbLine
 10
197.6756598990301
 20
-40.61062470009935
 30
0.0
 11
197.0256600718302
 21
-40.61062470009935
 31
0.0
  0
LINE
  5
429A
102
{ACAD_REACTORS
330
47E3
102
}
330
1F
100
AcDbEntity
  8
Kontruktion
100
AcDbLine
 10
200.2156596820301
 20
-40.61062470009935
 30
0.0
 11
199.5656598549301
 21
-40.61062470009935
 31
0.0
  0
LINE
  5
429D
102
{ACAD_REACTORS
330
47E3
102
}
330
1F
100
AcDbEntity
  8
Kontruktion
100
AcDbLine
 10
199.5656598549301
 20
-40.11062461809934
 30
0.0
 11
200.2156596820301
 21
-40.11062461809934
 31
0.0
  0
LINE
  5
42A0
102
{ACAD_REACTORS
330
47E3
102
}
330
1F
100
AcDbEntity
  8
Kontruktion
100
AcDbLine
 10
202.1056596379302
 20
-40.11062461809934
 30
0.0
 11
202.7556594651302
 21
-40.11062461809934
 31
0.0
  0
LINE
  5
42A3
102
{ACAD_REACTORS
330
47E3
102
}
330
1F
100
AcDbEntity
  8
Kontruktion
100
AcDbLine
 10
194.4856602888301
 20
-40.11062461809934
 30
0.0
 11
195.1356601159302
 21
-40.11062461809934
 31
0.0
  0
LINE
  5
42A6
102
{ACAD_REACTORS
330
47E3
102
}
330
1F
100
AcDbEntity
  8
Kontruktion
100
AcDbLine
 10
197.0256600718302
 20
-40.11062461809934
 30
0.0
 11
197.6756598990301
 21
-40.11062461809934
 31
0.0
  0
LINE
  5
42A9
102
{ACAD_REACTORS
330
47E3
102
}
330
1F
100
AcDbEntity
  8
Kontruktion
100
AcDbLine
 10
202.7556594651302
 20
-39.11062468699933
 30
0.0
 11
202.1056596379302
 21
-39.11062468699933
 31
0.0
  0
LINE
  5
42AD
102
{ACAD_REACTORS
330
47E3
102
}
330
1F
100
AcDbEntity
  8
Kontruktion
100
AcDbLine
 10
197.6756598990301
 20
-39.11062468699933
 30
0.0
 11
197.0256600718302
 21
-39.11062468699933
 31
0.0
  0
LINE
  5
42B1
102
{ACAD_REACTORS
330
47E3
102
}
330
1F
100
AcDbEntity
  8
Kontruktion
100
AcDbLine
 10
195.1356601159302
 20
-39.11062468699933
 30
0.0
 11
194.4856602888301
 21
-39.11062468699933
 31
0.0
  0
LINE
  5
42BB
102
{ACAD_REACTORS
330
47E3
102
}
330
1F
100
AcDbEntity
  8
Kontruktion
100
AcDbLine
 10
200.2156596820301
 20
-39.11062468699933
 30
0.0
 11
199.5656598549301
 21
-39.11062468699933
 31
0.0
  0
LINE
  5
42C2
102
{ACAD_REACTORS
330
47E3
102
}
330
1F
100
AcDbEntity
  8
Kontruktion
100
AcDbLine
 10
196.7175040583301
 20
-35.26062474889935
 30
0.0
 11
196.7175040583301
 21
-41.26062476009934
 31
0.0
  0
LINE
  5
42C3
102
{ACAD_REACTORS
330
47E3
102
}
330
1F
100
AcDbEntity
  8
Kontruktion
100
AcDbLine
 10
195.4475041668302
 20
-35.26062474889935
 30
0.0
 11
195.4475041668302
 21
-41.26062476009934
 31
0.0
  0
LINE
  5
42C4
102
{ACAD_REACTORS
330
47E3
102
}
330
1F
100
AcDbEntity
  8
Kontruktion
100
AcDbLine
 10
193.5575042109302
 20
-35.26062474889935
 30
0.0
 11
193.5575042109302
 21
-41.26062476009934
 31
0.0
  0
LINE
  5
42C6
102
{ACAD_REACTORS
330
47E3
102
}
330
1F
100
AcDbEntity
  8
Kontruktion
100
AcDbLine
 10
194.1775042753301
 20
-35.26062474889935
 30
0.0
 11
194.1775042753302
 21
-41.26062476009934
 31
0.0
  0
LINE
  5
42C7
102
{ACAD_REACTORS
330
47E3
102
}
330
1F
100
AcDbEntity
  8
Kontruktion
100
AcDbLine
 10
199.2575038414301
 20
-35.26062474889935
 30
0.0
 11
199.2575038414301
 21
-41.26062476009934
 31
0.0
  0
LINE
  5
42C8
102
{ACAD_REACTORS
330
47E3
102
}
330
1F
100
AcDbEntity
  8
Kontruktion
100
AcDbLine
 10
197.9875039499301
 20
-35.26062474889935
 30
0.0
 11
197.9875039499301
 21
-41.26062476009934
 31
0.0
  0
LINE
  5
42CA
102
{ACAD_REACTORS
330
47E3
102
}
330
1F
100
AcDbEntity
  8
Kontruktion
100
AcDbLine
 10
201.7975036244302
 20
-35.26062474889935
 30
0.0
 11
201.7975036244302
 21
-41.26062476009934
 31
0.0
  0
LINE
  5
42CB
102
{ACAD_REACTORS
330
47E3
102
}
330
1F
100
AcDbEntity
  8
Kontruktion
100
AcDbLine
 10
200.5275037329302
 20
-35.26062474889935
 30
0.0
 11
200.5275037329302
 21
-41.26062476009934
 31
0.0
  0
LINE
  5
42CD
102
{ACAD_REACTORS
330
47E3
102
}
330
1F
100
AcDbEntity
  8
Kontruktion
100
AcDbLine
 10
203.0675035159302
 20
-35.26062474889935
 30
0.0
 11
203.0675035159302
 21
-41.26062476009934
 31
0.0
  0
LINE
  5
42CE
102
{ACAD_REACTORS
330
47E3
102
}
330
1F
100
AcDbEntity
  8
Kontruktion
100
AcDbLine
 10
203.6875035803302
 20
-35.26062474889935
 30
0.0
 11
203.6875035803302
 21
-41.26062476009934
 31
0.0
  0
LINE
  5
42CF
102
{ACAD_REACTORS
330
47E3
102
}
330
1F
100
AcDbEntity
  8
Kontruktion
100
AcDbLine
 10
193.5575042109302
 20
-35.26062474889935
 30
0.0
 11
203.6875035803302
 21
-35.26062474889935
 31
0.0
  0
LWPOLYLINE
  5
4547
330
1F
100
AcDbEntity
  8
Kontruktion
100
AcDbPolyline
 90
        2
 70
   128
 43
0.0
 10
195.0099675446941
 20
51.73155899721038
 10
195.0099673118941
 20
51.7311566658104
  0
LWPOLYLINE
  5
4548
330
1F
100
AcDbEntity
  8
Kontruktion
100
AcDbPolyline
 90
        4
 70
     1
 43
0.0
 10
195.1102340990587
 20
52.50259016960419
 10
194.4602342718587
 20
52.50301485270412
 10
194.4598053978587
 20
51.85301875090416
 10
195.1098052249587
 20
51.85258661720414
  0
CIRCLE
  5
4549
330
1F
100
AcDbEntity
  8
Kontruktion
100
AcDbCircle
 10
194.7850213091941
 20
52.1776987131104
 30
0.0
 40
0.5
  0
LWPOLYLINE
  5
454A
330
1F
100
AcDbEntity
  8
Kontruktion
100
AcDbPolyline
 90
        2
 70
   128
 43
0.0
 10
197.5499680681879
 20
51.72989694372799
 10
197.5499678353879
 20
51.72949461232801
  0
LWPOLYLINE
  5
454B
330
1F
100
AcDbEntity
  8
Kontruktion
100
AcDbPolyline
 90
        4
 70
     1
 43
0.0
 10
197.6502346225525
 20
52.50092811612174
 10
197.0002347953525
 20
52.50135279922173
 10
196.9998059213525
 20
51.85135669742172
 10
197.6498057484525
 20
51.85092456372169
  0
CIRCLE
  5
454C
330
1F
100
AcDbEntity
  8
Kontruktion
100
AcDbCircle
 10
197.3250218326879
 20
52.17603665962801
 30
0.0
 40
0.5
  0
LWPOLYLINE
  5
454D
330
1F
100
AcDbEntity
  8
Kontruktion
100
AcDbPolyline
 90
        2
 70
   128
 43
0.0
 10
200.0899674756301
 20
51.73145511378155
 10
200.0899672428301
 20
51.73105278238157
  0
LWPOLYLINE
  5
454E
330
1F
100
AcDbEntity
  8
Kontruktion
100
AcDbPolyline
 90
        4
 70
     1
 43
0.0
 10
200.1902340299948
 20
52.5024862861753
 10
199.5402342027948
 20
52.50291096927529
 10
199.5398053287948
 20
51.85291486747527
 10
200.1898051558947
 20
51.8524827337753
  0
CIRCLE
  5
454F
330
1F
100
AcDbEntity
  8
Kontruktion
100
AcDbCircle
 10
199.8650212401301
 20
52.17759482968157
 30
0.0
 40
0.5
  0
LWPOLYLINE
  5
4550
330
1F
100
AcDbEntity
  8
Kontruktion
100
AcDbPolyline
 90
        2
 70
   128
 43
0.0
 10
202.6299674756302
 20
51.73145511378155
 10
202.6299672428302
 20
51.73105278238157
  0
LWPOLYLINE
  5
4551
330
1F
100
AcDbEntity
  8
Kontruktion
100
AcDbPolyline
 90
        4
 70
     1
 43
0.0
 10
202.7302340299948
 20
52.5024862861753
 10
202.0802342027948
 20
52.50291096927529
 10
202.0798053287948
 20
51.85291486747527
 10
202.7298051558948
 20
51.8524827337753
  0
CIRCLE
  5
4552
330
1F
100
AcDbEntity
  8
Kontruktion
100
AcDbCircle
 10
202.4050212401302
 20
52.17759482968157
 30
0.0
 40
0.5
  0
LWPOLYLINE
  5
4565
330
1F
100
AcDbEntity
  8
Kontruktion
100
AcDbPolyline
 90
        2
 70
   128
 43
0.0
 10
45.00996782469411
 20
51.73155899721038
 10
45.00996759189411
 20
51.7311566658104
  0
LWPOLYLINE
  5
4566
330
1F
100
AcDbEntity
  8
Kontruktion
100
AcDbPolyline
 90
        4
 70
     1
 43
0.0
 10
45.11023437905874
 20
52.50259016960419
 10
44.46023455185875
 20
52.50301485270412
 10
44.45980567785875
 20
51.85301875090416
 10
45.10980550495872
 20
51.85258661720414
  0
CIRCLE
  5
4567
330
1F
100
AcDbEntity
  8
Kontruktion
100
AcDbCircle
 10
44.78502158919411
 20
52.1776987131104
 30
0.0
 40
0.5
  0
LWPOLYLINE
  5
4568
330
1F
100
AcDbEntity
  8
Kontruktion
100
AcDbPolyline
 90
        2
 70
   128
 43
0.0
 10
47.54996834818792
 20
51.72989694372799
 10
47.54996811538791
 20
51.72949461232801
  0
LWPOLYLINE
  5
4569
330
1F
100
AcDbEntity
  8
Kontruktion
100
AcDbPolyline
 90
        4
 70
     1
 43
0.0
 10
47.65023490255254
 20
52.50092811612174
 10
47.00023507535255
 20
52.50135279922173
 10
46.99980620135256
 20
51.85135669742172
 10
47.64980602845253
 20
51.85092456372169
  0
CIRCLE
  5
456A
330
1F
100
AcDbEntity
  8
Kontruktion
100
AcDbCircle
 10
47.32502211268792
 20
52.17603665962801
 30
0.0
 40
0.5
  0
LWPOLYLINE
  5
456B
330
1F
100
AcDbEntity
  8
Kontruktion
100
AcDbPolyline
 90
        2
 70
   128
 43
0.0
 10
50.08996775563018
 20
51.73145511378155
 10
50.08996752283017
 20
51.73105278238157
  0
LWPOLYLINE
  5
456C
330
1F
100
AcDbEntity
  8
Kontruktion
100
AcDbPolyline
 90
        4
 70
     1
 43
0.0
 10
50.19023430999481
 20
52.5024862861753
 10
49.54023448279484
 20
52.50291096927529
 10
49.53980560879482
 20
51.85291486747527
 10
50.1898054358948
 20
51.8524827337753
  0
CIRCLE
  5
456D
330
1F
100
AcDbEntity
  8
Kontruktion
100
AcDbCircle
 10
49.86502152013018
 20
52.17759482968157
 30
0.0
 40
0.5
  0
LWPOLYLINE
  5
456E
330
1F
100
AcDbEntity
  8
Kontruktion
100
AcDbPolyline
 90
        2
 70
   128
 43
0.0
 10
52.62996775563019
 20
51.73145511378155
 10
52.62996752283019
 20
51.73105278238157
  0
LWPOLYLINE
  5
456F
330
1F
100
AcDbEntity
  8
Kontruktion
100
AcDbPolyline
 90
        4
 70
     1
 43
0.0
 10
52.73023430999481
 20
52.5024862861753
 10
52.08023448279485
 20
52.50291096927529
 10
52.07980560879483
 20
51.85291486747527
 10
52.7298054358948
 20
51.8524827337753
  0
CIRCLE
  5
4570
330
1F
100
AcDbEntity
  8
Kontruktion
100
AcDbCircle
 10
52.40502152013019
 20
52.17759482968157
 30
0.0
 40
0.5
  0
LWPOLYLINE
  5
4571
330
1F
100
AcDbEntity
  8
Kontruktion
100
AcDbPolyline
 90
        4
 70
     1
 43
0.0
 10
25.35242179443017
 20
18.72758524858156
 10
25.35242179443017
 20
16.77758530148156
 10
28.00242194943019
 20
16.77758530148156
 10
28.00242194943019
 20
18.72758524858156
  0
LWPOLYLINE
  5
4572
330
1F
100
AcDbEntity
  8
Kontruktion
100
AcDbPolyline
 90
        4
 70
     1
 43
0.0
 10
137.8524202111301
 20
12.47758538828157
 10
137.8524202111301
 20
10.52758497548156
 10
140.5024203661301
 20
10.52758497548156
 10
140.5024203661301
 20
12.47758538828157
  0
LWPOLYLINE
  5
4573
330
1F
100
AcDbEntity
  8
Kontruktion
100
AcDbPolyline
 90
        4
 70
     1
 43
0.0
 10
25.35242179443017
 20
24.97758510888157
 10
25.35242179443017
 20
23.02758516178156
 10
28.00242194943019
 20
23.02758516178156
 10
28.00242194943019
 20
24.97758510888157
  0
LWPOLYLINE
  5
4574
330
1F
100
AcDbEntity
  8
Kontruktion
100
AcDbPolyline
 90
        4
 70
     1
 43
0.0
 10
25.35242179443017
 20
31.22758520198156
 10
25.35242179443017
 20
29.27758572058157
 10
28.00242194943019
 20
29.27758572058157
 10
28.00242194943019
 20
31.22758520198156
  0
LWPOLYLINE
  5
4575
330
1F
100
AcDbEntity
  8
Kontruktion
100
AcDbPolyline
 90
        4
 70
     1
 43
0.0
 10
25.35242179443017
 20
37.47758576078155
 10
25.35242179443017
 20
35.52758441668158
 10
28.00242194943019
 20
35.52758441668158
 10
28.00242194943019
 20
37.47758576078155
  0
LWPOLYLINE
  5
4576
330
1F
100
AcDbEntity
  8
Kontruktion
100
AcDbPolyline
 90
        4
 70
     1
 43
0.0
 10
25.35242179443017
 20
43.72758538828157
 10
25.35242179443017
 20
41.77758590678155
 10
28.00242194943019
 20
41.77758590678155
 10
28.00242194943019
 20
43.72758538828157
  0
LWPOLYLINE
  5
4577
330
1F
100
AcDbEntity
  8
Kontruktion
100
AcDbPolyline
 90
        4
 70
     1
 43
0.0
 10
25.35242179443017
 20
49.97758501568156
 10
25.35242179443017
 20
48.02758553428157
 10
28.00242194943019
 20
48.02758553428157
 10
28.00242194943019
 20
49.97758501568156
  0
LWPOLYLINE
  5
4578
330
1F
100
AcDbEntity
  8
Kontruktion
100
AcDbPolyline
 90
        4
 70
     1
 43
0.0
 10
219.1024232845302
 20
12.47758538828157
 10
219.1024232845302
 20
10.52758497548156
 10
221.7524234395302
 20
10.52758497548156
 10
221.7524234395302
 20
12.47758538828157
  0
LWPOLYLINE
  5
4579
330
1F
100
AcDbEntity
  8
Kontruktion
100
AcDbPolyline
 90
        4
 70
     1
 43
0.0
 10
212.8524217944302
 20
12.47758538828157
 10
212.8524217944302
 20
10.52758497548156
 10
215.5024219494302
 20
10.52758497548156
 10
215.5024219494302
 20
12.47758538828157
  0
LWPOLYLINE
  5
457A
330
1F
100
AcDbEntity
  8
Kontruktion
100
AcDbPolyline
 90
        4
 70
     1
 43
0.0
 10
206.6024203043302
 20
12.47758538828157
 10
206.6024203043302
 20
10.52758497548156
 10
209.2524204592302
 20
10.52758497548156
 10
209.2524204592302
 20
12.47758538828157
  0
LWPOLYLINE
  5
457B
330
1F
100
AcDbEntity
  8
Kontruktion
100
AcDbPolyline
 90
        4
 70
     1
 43
0.0
 10
200.3524188142302
 20
12.47758538828157
 10
200.3524188142302
 20
10.52758497548156
 10
203.0024189691302
 20
10.52758497548156
 10
203.0024189691302
 20
12.47758538828157
  0
LWPOLYLINE
  5
457C
330
1F
100
AcDbEntity
  8
Kontruktion
100
AcDbPolyline
 90
        4
 70
     1
 43
0.0
 10
194.1024210493302
 20
12.47758538828157
 10
194.1024210493302
 20
10.52758497548156
 10
196.7524212043302
 20
10.52758497548156
 10
196.7524212043302
 20
12.47758538828157
  0
LWPOLYLINE
  5
457D
330
1F
100
AcDbEntity
  8
Kontruktion
100
AcDbPolyline
 90
        4
 70
     1
 43
0.0
 10
187.8524195592301
 20
12.47758538828157
 10
187.8524195592301
 20
10.52758497548156
 10
190.5024197142302
 20
10.52758497548156
 10
190.5024197142302
 20
12.47758538828157
  0
LWPOLYLINE
  5
457E
330
1F
100
AcDbEntity
  8
Kontruktion
100
AcDbPolyline
 90
        4
 70
     1
 43
0.0
 10
181.6024217944302
 20
12.47758538828157
 10
181.6024217944302
 20
10.52758497548156
 10
184.2524219494302
 20
10.52758497548156
 10
184.2524219494302
 20
12.47758538828157
  0
LWPOLYLINE
  5
457F
330
1F
100
AcDbEntity
  8
Kontruktion
100
AcDbPolyline
 90
        4
 70
     1
 43
0.0
 10
175.3524203043301
 20
12.47758538828157
 10
175.3524203043301
 20
10.52758497548156
 10
178.0024204592301
 20
10.52758497548156
 10
178.0024204592301
 20
12.47758538828157
  0
LWPOLYLINE
  5
4580
330
1F
100
AcDbEntity
  8
Kontruktion
100
AcDbPolyline
 90
        4
 70
     1
 43
0.0
 10
169.1024206768302
 20
12.47758538828157
 10
169.1024206768302
 20
10.52758497548156
 10
171.7524208318302
 20
10.52758497548156
 10
171.7524208318302
 20
12.47758538828157
  0
LWPOLYLINE
  5
4581
330
1F
100
AcDbEntity
  8
Kontruktion
100
AcDbPolyline
 90
        4
 70
     1
 43
0.0
 10
162.8524210493302
 20
12.47758538828157
 10
162.8524210493302
 20
10.52758497548156
 10
165.5024212043302
 20
10.52758497548156
 10
165.5024212043302
 20
12.47758538828157
  0
LWPOLYLINE
  5
4582
330
1F
100
AcDbEntity
  8
Kontruktion
100
AcDbPolyline
 90
        4
 70
     1
 43
0.0
 10
156.6024204905301
 20
12.47758538828157
 10
156.6024204905301
 20
10.52758497548156
 10
159.2524206455301
 20
10.52758497548156
 10
159.2524206455301
 20
12.47758538828157
  0
LWPOLYLINE
  5
4583
330
1F
100
AcDbEntity
  8
Kontruktion
100
AcDbPolyline
 90
        4
 70
     1
 43
0.0
 10
150.3524203974301
 20
12.47758538828157
 10
150.3524203974301
 20
10.52758497548156
 10
153.0024200867302
 20
10.52758497548156
 10
153.0024200867302
 20
12.47758538828157
  0
LWPOLYLINE
  5
4584
330
1F
100
AcDbEntity
  8
Kontruktion
100
AcDbPolyline
 90
        4
 70
     1
 43
0.0
 10
146.7524202264302
 20
10.52758497548156
 10
146.7524202264302
 20
12.47758538828157
 10
144.1024202897302
 20
12.47758538828157
 10
144.1024202897302
 20
10.52758497548156
  0
LWPOLYLINE
  5
4585
330
1F
100
AcDbEntity
  8
Kontruktion
100
AcDbPolyline
 90
        4
 70
     1
 43
0.0
 10
156.6024204905301
 20
24.97758510888157
 10
156.6024204905301
 20
23.02758516178156
 10
159.2524206455301
 20
23.02758516178156
 10
159.2524206455301
 20
24.97758510888157
  0
LWPOLYLINE
  5
4586
330
1F
100
AcDbEntity
  8
Kontruktion
100
AcDbPolyline
 90
        4
 70
     1
 43
0.0
 10
150.3524203974301
 20
24.97758510888157
 10
150.3524203974301
 20
23.02758516178156
 10
153.0024200867302
 20
23.02758516178156
 10
153.0024200867302
 20
24.97758510888157
  0
LWPOLYLINE
  5
4587
330
1F
100
AcDbEntity
  8
Kontruktion
100
AcDbPolyline
 90
        4
 70
     1
 43
0.0
 10
144.1024202897302
 20
24.97758510888157
 10
144.1024202897302
 20
23.02758516178156
 10
146.7524202264302
 20
23.02758516178156
 10
146.7524202264302
 20
24.97758510888157
  0
LWPOLYLINE
  5
4588
330
1F
100
AcDbEntity
  8
Kontruktion
100
AcDbPolyline
 90
        4
 70
     1
 43
0.0
 10
137.8524202111301
 20
24.97758510888157
 10
137.8524202111301
 20
23.02758516178156
 10
140.5024203661301
 20
23.02758516178156
 10
140.5024203661301
 20
24.97758510888157
  0
LWPOLYLINE
  5
4589
330
1F
100
AcDbEntity
  8
Kontruktion
100
AcDbPolyline
 90
        4
 70
     1
 43
0.0
 10
131.6024201180302
 20
24.97758510888157
 10
131.6024201180302
 20
23.02758516178156
 10
134.2524202730301
 20
23.02758516178156
 10
134.2524202730301
 20
24.97758510888157
  0
LWPOLYLINE
  5
458A
330
1F
100
AcDbEntity
  8
Kontruktion
100
AcDbPolyline
 90
        4
 70
     1
 43
0.0
 10
125.3524195592301
 20
24.97758510888157
 10
125.3524195592301
 20
23.02758516178156
 10
128.0024197142301
 20
23.02758516178156
 10
128.0024197142301
 20
24.97758510888157
  0
LWPOLYLINE
  5
458B
330
1F
100
AcDbEntity
  8
Kontruktion
100
AcDbPolyline
 90
        4
 70
     1
 43
0.0
 10
119.1024199317301
 20
24.97758510888157
 10
119.1024199317301
 20
23.02758516178156
 10
121.7524200867302
 20
23.02758516178156
 10
121.7524200867302
 20
24.97758510888157
  0
LWPOLYLINE
  5
458C
330
1F
100
AcDbEntity
  8
Kontruktion
100
AcDbPolyline
 90
        4
 70
     1
 43
0.0
 10
112.8524203043301
 20
24.97758510888157
 10
112.8524203043301
 20
23.02758516178156
 10
115.5024204592301
 20
23.02758516178156
 10
115.5024204592301
 20
24.97758510888157
  0
LWPOLYLINE
  5
458D
330
1F
100
AcDbEntity
  8
Kontruktion
100
AcDbPolyline
 90
        4
 70
     1
 43
0.0
 10
106.6024188142302
 20
24.97758510888157
 10
106.6024188142302
 20
23.02758516178156
 10
109.2524189691302
 20
23.02758516178156
 10
109.2524189691302
 20
24.97758510888157
  0
LWPOLYLINE
  5
458E
330
1F
100
AcDbEntity
  8
Kontruktion
100
AcDbPolyline
 90
        4
 70
     1
 43
0.0
 10
100.3524210493302
 20
24.97758510888157
 10
100.3524210493302
 20
23.02758516178156
 10
103.0024212043302
 20
23.02758516178156
 10
103.0024212043302
 20
24.97758510888157
  0
LWPOLYLINE
  5
458F
330
1F
100
AcDbEntity
  8
Kontruktion
100
AcDbPolyline
 90
        4
 70
     1
 43
0.0
 10
94.10241955923018
 20
24.97758510888157
 10
94.10241955923018
 20
23.02758516178156
 10
96.75241971423018
 20
23.02758516178156
 10
96.75241971423018
 20
24.97758510888157
  0
LWPOLYLINE
  5
4590
330
1F
100
AcDbEntity
  8
Kontruktion
100
AcDbPolyline
 90
        4
 70
     1
 43
0.0
 10
87.85242179443017
 20
24.97758510888157
 10
87.85242179443017
 20
23.02758516178156
 10
90.50242194943018
 20
23.02758516178156
 10
90.50242194943018
 20
24.97758510888157
  0
LWPOLYLINE
  5
4591
330
1F
100
AcDbEntity
  8
Kontruktion
100
AcDbPolyline
 90
        4
 70
     1
 43
0.0
 10
81.60242030433016
 20
24.97758510888157
 10
81.60242030433016
 20
23.02758516178156
 10
84.25242045923017
 20
23.02758516178156
 10
84.25242045923017
 20
24.97758510888157
  0
LWPOLYLINE
  5
4592
330
1F
100
AcDbEntity
  8
Kontruktion
100
AcDbPolyline
 90
        4
 70
     1
 43
0.0
 10
75.35241881423019
 20
24.97758510888157
 10
75.35241881423019
 20
23.02758516178156
 10
78.00241896913019
 20
23.02758516178156
 10
78.00241896913019
 20
24.97758510888157
  0
LWPOLYLINE
  5
4593
330
1F
100
AcDbEntity
  8
Kontruktion
100
AcDbPolyline
 90
        4
 70
     1
 43
0.0
 10
69.10241732403017
 20
24.97758510888157
 10
69.10241732403017
 20
23.02758516178156
 10
71.75241747903019
 20
23.02758516178156
 10
71.75241747903019
 20
24.97758510888157
  0
LWPOLYLINE
  5
4594
330
1F
100
AcDbEntity
  8
Kontruktion
100
AcDbPolyline
 90
        4
 70
     1
 43
0.0
 10
62.85242328453017
 20
24.97758510888157
 10
62.85242328453017
 20
23.02758516178156
 10
65.50242343953019
 20
23.02758516178156
 10
65.50242343953019
 20
24.97758510888157
  0
LWPOLYLINE
  5
4595
330
1F
100
AcDbEntity
  8
Kontruktion
100
AcDbPolyline
 90
        4
 70
     1
 43
0.0
 10
56.60242179443017
 20
24.97758510888157
 10
56.60242179443017
 20
23.02758516178156
 10
59.25242194943018
 20
23.02758516178156
 10
59.25242194943018
 20
24.97758510888157
  0
LWPOLYLINE
  5
4596
330
1F
100
AcDbEntity
  8
Kontruktion
100
AcDbPolyline
 90
        4
 70
     1
 43
0.0
 10
50.35242030433017
 20
24.97758510888157
 10
50.35242030433017
 20
23.02758516178156
 10
53.00242045923017
 20
23.02758516178156
 10
53.00242045923017
 20
24.97758510888157
  0
LWPOLYLINE
  5
4597
330
1F
100
AcDbEntity
  8
Kontruktion
100
AcDbPolyline
 90
        4
 70
     1
 43
0.0
 10
44.10241881423019
 20
24.97758510888157
 10
44.10241881423019
 20
23.02758516178156
 10
46.75241896913019
 20
23.02758516178156
 10
46.75241896913019
 20
24.97758510888157
  0
LWPOLYLINE
  5
4598
330
1F
100
AcDbEntity
  8
Kontruktion
100
AcDbPolyline
 90
        4
 70
     1
 43
0.0
 10
37.85241732403017
 20
24.97758510888157
 10
37.85241732403017
 20
23.02758516178156
 10
40.50241747903015
 20
23.02758516178156
 10
40.50241747903015
 20
24.97758510888157
  0
LWPOLYLINE
  5
4599
330
1F
100
AcDbEntity
  8
Kontruktion
100
AcDbPolyline
 90
        4
 70
     1
 43
0.0
 10
31.60242328453018
 20
24.97758510888157
 10
31.60242328453018
 20
23.02758516178156
 10
34.25242343953016
 20
23.02758516178156
 10
34.25242343953016
 20
24.97758510888157
  0
LWPOLYLINE
  5
459A
330
1F
100
AcDbEntity
  8
Kontruktion
100
AcDbPolyline
 90
        4
 70
     1
 43
0.0
 10
131.6024201180302
 20
12.47758538828157
 10
131.6024201180302
 20
10.52758497548156
 10
134.2524202730301
 20
10.52758497548156
 10
134.2524202730301
 20
12.47758538828157
  0
LWPOLYLINE
  5
459B
330
1F
100
AcDbEntity
  8
Kontruktion
100
AcDbPolyline
 90
        4
 70
     1
 43
0.0
 10
125.3524195592301
 20
12.47758538828157
 10
125.3524195592301
 20
10.52758497548156
 10
128.0024197142301
 20
10.52758497548156
 10
128.0024197142301
 20
12.47758538828157
  0
LWPOLYLINE
  5
459C
330
1F
100
AcDbEntity
  8
Kontruktion
100
AcDbPolyline
 90
        4
 70
     1
 43
0.0
 10
119.1024199317301
 20
12.47758538828157
 10
119.1024199317301
 20
10.52758497548156
 10
121.7524200867302
 20
10.52758497548156
 10
121.7524200867302
 20
12.47758538828157
  0
LWPOLYLINE
  5
459D
330
1F
100
AcDbEntity
  8
Kontruktion
100
AcDbPolyline
 90
        4
 70
     1
 43
0.0
 10
112.8524203043301
 20
12.47758538828157
 10
112.8524203043301
 20
10.52758497548156
 10
115.5024204592301
 20
10.52758497548156
 10
115.5024204592301
 20
12.47758538828157
  0
LWPOLYLINE
  5
459E
330
1F
100
AcDbEntity
  8
Kontruktion
100
AcDbPolyline
 90
        4
 70
     1
 43
0.0
 10
106.6024188142302
 20
12.47758538828157
 10
106.6024188142302
 20
10.52758497548156
 10
109.2524189691302
 20
10.52758497548156
 10
109.2524189691302
 20
12.47758538828157
  0
LWPOLYLINE
  5
459F
330
1F
100
AcDbEntity
  8
Kontruktion
100
AcDbPolyline
 90
        4
 70
     1
 43
0.0
 10
100.3524210493302
 20
12.47758538828157
 10
100.3524210493302
 20
10.52758497548156
 10
103.0024212043302
 20
10.52758497548156
 10
103.0024212043302
 20
12.47758538828157
  0
LWPOLYLINE
  5
45A0
330
1F
100
AcDbEntity
  8
Kontruktion
100
AcDbPolyline
 90
        4
 70
     1
 43
0.0
 10
94.10241955923018
 20
12.47758538828157
 10
94.10241955923018
 20
10.52758497548156
 10
96.75241971423018
 20
10.52758497548156
 10
96.75241971423018
 20
12.47758538828157
  0
LWPOLYLINE
  5
45A1
330
1F
100
AcDbEntity
  8
Kontruktion
100
AcDbPolyline
 90
        4
 70
     1
 43
0.0
 10
87.85242179443017
 20
12.47758538828157
 10
87.85242179443017
 20
10.52758497548156
 10
90.50242194943018
 20
10.52758497548156
 10
90.50242194943018
 20
12.47758538828157
  0
LWPOLYLINE
  5
45A2
330
1F
100
AcDbEntity
  8
Kontruktion
100
AcDbPolyline
 90
        4
 70
     1
 43
0.0
 10
81.60242030433016
 20
12.47758538828157
 10
81.60242030433016
 20
10.52758497548156
 10
84.25242045923017
 20
10.52758497548156
 10
84.25242045923017
 20
12.47758538828157
  0
LWPOLYLINE
  5
45A3
330
1F
100
AcDbEntity
  8
Kontruktion
100
AcDbPolyline
 90
        4
 70
     1
 43
0.0
 10
75.35241881423019
 20
12.47758538828157
 10
75.35241881423019
 20
10.52758497548156
 10
78.00241896913019
 20
10.52758497548156
 10
78.00241896913019
 20
12.47758538828157
  0
LWPOLYLINE
  5
45A4
330
1F
100
AcDbEntity
  8
Kontruktion
100
AcDbPolyline
 90
        4
 70
     1
 43
0.0
 10
69.10241732403017
 20
12.47758538828157
 10
69.10241732403017
 20
10.52758497548156
 10
71.75241747903019
 20
10.52758497548156
 10
71.75241747903019
 20
12.47758538828157
  0
LWPOLYLINE
  5
45A5
330
1F
100
AcDbEntity
  8
Kontruktion
100
AcDbPolyline
 90
        4
 70
     1
 43
0.0
 10
62.85242328453017
 20
12.47758538828157
 10
62.85242328453017
 20
10.52758497548156
 10
65.50242343953019
 20
10.52758497548156
 10
65.50242343953019
 20
12.47758538828157
  0
LWPOLYLINE
  5
45A6
330
1F
100
AcDbEntity
  8
Kontruktion
100
AcDbPolyline
 90
        4
 70
     1
 43
0.0
 10
56.60242179443017
 20
12.47758538828157
 10
56.60242179443017
 20
10.52758497548156
 10
59.25242194943018
 20
10.52758497548156
 10
59.25242194943018
 20
12.47758538828157
  0
LWPOLYLINE
  5
45A7
330
1F
100
AcDbEntity
  8
Kontruktion
100
AcDbPolyline
 90
        4
 70
     1
 43
0.0
 10
50.35242030433017
 20
12.47758538828157
 10
50.35242030433017
 20
10.52758497548156
 10
53.00242045923017
 20
10.52758497548156
 10
53.00242045923017
 20
12.47758538828157
  0
LWPOLYLINE
  5
45A8
330
1F
100
AcDbEntity
  8
Kontruktion
100
AcDbPolyline
 90
        4
 70
     1
 43
0.0
 10
44.10241881423019
 20
12.47758538828157
 10
44.10241881423019
 20
10.52758497548156
 10
46.75241896913019
 20
10.52758497548156
 10
46.75241896913019
 20
12.47758538828157
  0
LWPOLYLINE
  5
45A9
330
1F
100
AcDbEntity
  8
Kontruktion
100
AcDbPolyline
 90
        4
 70
     1
 43
0.0
 10
37.85241732403017
 20
12.47758538828157
 10
37.85241732403017
 20
10.52758497548156
 10
40.50241747903015
 20
10.52758497548156
 10
40.50241747903015
 20
12.47758538828157
  0
LWPOLYLINE
  5
45AA
330
1F
100
AcDbEntity
  8
Kontruktion
100
AcDbPolyline
 90
        4
 70
     1
 43
0.0
 10
31.60242328453018
 20
12.47758538828157
 10
31.60242328453018
 20
10.52758497548156
 10
34.25242343953016
 20
10.52758497548156
 10
34.25242343953016
 20
12.47758538828157
  0
LWPOLYLINE
  5
45AB
330
1F
100
AcDbEntity
  8
Kontruktion
100
AcDbPolyline
 90
        4
 70
     1
 43
0.0
 10
219.1024232845302
 20
18.72758524858156
 10
219.1024232845302
 20
16.77758530148156
 10
221.7524234395302
 20
16.77758530148156
 10
221.7524234395302
 20
18.72758524858156
  0
LWPOLYLINE
  5
45AC
330
1F
100
AcDbEntity
  8
Kontruktion
100
AcDbPolyline
 90
        4
 70
     1
 43
0.0
 10
212.8524217944302
 20
18.72758524858156
 10
212.8524217944302
 20
16.77758530148156
 10
215.5024219494302
 20
16.77758530148156
 10
215.5024219494302
 20
18.72758524858156
  0
LWPOLYLINE
  5
45AD
330
1F
100
AcDbEntity
  8
Kontruktion
100
AcDbPolyline
 90
        4
 70
     1
 43
0.0
 10
206.6024203043302
 20
18.72758524858156
 10
206.6024203043302
 20
16.77758530148156
 10
209.2524204592302
 20
16.77758530148156
 10
209.2524204592302
 20
18.72758524858156
  0
LWPOLYLINE
  5
45AE
330
1F
100
AcDbEntity
  8
Kontruktion
100
AcDbPolyline
 90
        4
 70
     1
 43
0.0
 10
200.3524188142302
 20
18.72758524858156
 10
200.3524188142302
 20
16.77758530148156
 10
203.0024189691302
 20
16.77758530148156
 10
203.0024189691302
 20
18.72758524858156
  0
LWPOLYLINE
  5
45AF
330
1F
100
AcDbEntity
  8
Kontruktion
100
AcDbPolyline
 90
        4
 70
     1
 43
0.0
 10
194.1024210493302
 20
18.72758524858156
 10
194.1024210493302
 20
16.77758530148156
 10
196.7524212043302
 20
16.77758530148156
 10
196.7524212043302
 20
18.72758524858156
  0
LWPOLYLINE
  5
45B0
330
1F
100
AcDbEntity
  8
Kontruktion
100
AcDbPolyline
 90
        4
 70
     1
 43
0.0
 10
187.8524195592301
 20
18.72758524858156
 10
187.8524195592301
 20
16.77758530148156
 10
190.5024197142302
 20
16.77758530148156
 10
190.5024197142302
 20
18.72758524858156
  0
LWPOLYLINE
  5
45B1
330
1F
100
AcDbEntity
  8
Kontruktion
100
AcDbPolyline
 90
        4
 70
     1
 43
0.0
 10
181.6024217944302
 20
18.72758524858156
 10
181.6024217944302
 20
16.77758530148156
 10
184.2524219494302
 20
16.77758530148156
 10
184.2524219494302
 20
18.72758524858156
  0
LWPOLYLINE
  5
45B2
330
1F
100
AcDbEntity
  8
Kontruktion
100
AcDbPolyline
 90
        4
 70
     1
 43
0.0
 10
175.3524203043301
 20
18.72758524858156
 10
175.3524203043301
 20
16.77758530148156
 10
178.0024204592301
 20
16.77758530148156
 10
178.0024204592301
 20
18.72758524858156
  0
LWPOLYLINE
  5
45B3
330
1F
100
AcDbEntity
  8
Kontruktion
100
AcDbPolyline
 90
        4
 70
     1
 43
0.0
 10
169.1024206768302
 20
18.72758524858156
 10
169.1024206768302
 20
16.77758530148156
 10
171.7524208318302
 20
16.77758530148156
 10
171.7524208318302
 20
18.72758524858156
  0
LWPOLYLINE
  5
45B4
330
1F
100
AcDbEntity
  8
Kontruktion
100
AcDbPolyline
 90
        4
 70
     1
 43
0.0
 10
162.8524210493302
 20
18.72758524858156
 10
162.8524210493302
 20
16.77758530148156
 10
165.5024212043302
 20
16.77758530148156
 10
165.5024212043302
 20
18.72758524858156
  0
LWPOLYLINE
  5
45B5
330
1F
100
AcDbEntity
  8
Kontruktion
100
AcDbPolyline
 90
        4
 70
     1
 43
0.0
 10
156.6024204905301
 20
18.72758524858156
 10
156.6024204905301
 20
16.77758530148156
 10
159.2524206455301
 20
16.77758530148156
 10
159.2524206455301
 20
18.72758524858156
  0
LWPOLYLINE
  5
45B6
330
1F
100
AcDbEntity
  8
Kontruktion
100
AcDbPolyline
 90
        4
 70
     1
 43
0.0
 10
150.3524203974301
 20
18.72758524858156
 10
150.3524203974301
 20
16.77758530148156
 10
153.0024200867302
 20
16.77758530148156
 10
153.0024200867302
 20
18.72758524858156
  0
LWPOLYLINE
  5
45B7
330
1F
100
AcDbEntity
  8
Kontruktion
100
AcDbPolyline
 90
        4
 70
     1
 43
0.0
 10
144.1024202897302
 20
18.72758524858156
 10
144.1024202897302
 20
16.77758530148156
 10
146.7524202264302
 20
16.77758530148156
 10
146.7524202264302
 20
18.72758524858156
  0
LWPOLYLINE
  5
45B8
330
1F
100
AcDbEntity
  8
Kontruktion
100
AcDbPolyline
 90
        4
 70
     1
 43
0.0
 10
137.8524202111301
 20
18.72758524858156
 10
137.8524202111301
 20
16.77758530148156
 10
140.5024203661301
 20
16.77758530148156
 10
140.5024203661301
 20
18.72758524858156
  0
LWPOLYLINE
  5
45B9
330
1F
100
AcDbEntity
  8
Kontruktion
100
AcDbPolyline
 90
        4
 70
     1
 43
0.0
 10
131.6024201180302
 20
18.72758524858156
 10
131.6024201180302
 20
16.77758530148156
 10
134.2524202730301
 20
16.77758530148156
 10
134.2524202730301
 20
18.72758524858156
  0
LWPOLYLINE
  5
45BA
330
1F
100
AcDbEntity
  8
Kontruktion
100
AcDbPolyline
 90
        4
 70
     1
 43
0.0
 10
125.3524195592301
 20
18.72758524858156
 10
125.3524195592301
 20
16.77758530148156
 10
128.0024197142301
 20
16.77758530148156
 10
128.0024197142301
 20
18.72758524858156
  0
LWPOLYLINE
  5
45BB
330
1F
100
AcDbEntity
  8
Kontruktion
100
AcDbPolyline
 90
        4
 70
     1
 43
0.0
 10
119.1024199317301
 20
18.72758524858156
 10
119.1024199317301
 20
16.77758530148156
 10
121.7524200867302
 20
16.77758530148156
 10
121.7524200867302
 20
18.72758524858156
  0
LWPOLYLINE
  5
45BC
330
1F
100
AcDbEntity
  8
Kontruktion
100
AcDbPolyline
 90
        4
 70
     1
 43
0.0
 10
112.8524203043301
 20
18.72758524858156
 10
112.8524203043301
 20
16.77758530148156
 10
115.5024204592301
 20
16.77758530148156
 10
115.5024204592301
 20
18.72758524858156
  0
LWPOLYLINE
  5
45BD
330
1F
100
AcDbEntity
  8
Kontruktion
100
AcDbPolyline
 90
        4
 70
     1
 43
0.0
 10
106.6024188142302
 20
18.72758524858156
 10
106.6024188142302
 20
16.77758530148156
 10
109.2524189691302
 20
16.77758530148156
 10
109.2524189691302
 20
18.72758524858156
  0
LWPOLYLINE
  5
45BE
330
1F
100
AcDbEntity
  8
Kontruktion
100
AcDbPolyline
 90
        4
 70
     1
 43
0.0
 10
100.3524210493302
 20
18.72758524858156
 10
100.3524210493302
 20
16.77758530148156
 10
103.0024212043302
 20
16.77758530148156
 10
103.0024212043302
 20
18.72758524858156
  0
LWPOLYLINE
  5
45BF
330
1F
100
AcDbEntity
  8
Kontruktion
100
AcDbPolyline
 90
        4
 70
     1
 43
0.0
 10
94.10241955923018
 20
18.72758524858156
 10
94.10241955923018
 20
16.77758530148156
 10
96.75241971423018
 20
16.77758530148156
 10
96.75241971423018
 20
18.72758524858156
  0
LWPOLYLINE
  5
45C0
330
1F
100
AcDbEntity
  8
Kontruktion
100
AcDbPolyline
 90
        4
 70
     1
 43
0.0
 10
87.85242179443017
 20
18.72758524858156
 10
87.85242179443017
 20
16.77758530148156
 10
90.50242194943018
 20
16.77758530148156
 10
90.50242194943018
 20
18.72758524858156
  0
LWPOLYLINE
  5
45C1
330
1F
100
AcDbEntity
  8
Kontruktion
100
AcDbPolyline
 90
        4
 70
     1
 43
0.0
 10
81.60242030433016
 20
18.72758524858156
 10
81.60242030433016
 20
16.77758530148156
 10
84.25242045923017
 20
16.77758530148156
 10
84.25242045923017
 20
18.72758524858156
  0
LWPOLYLINE
  5
45C2
330
1F
100
AcDbEntity
  8
Kontruktion
100
AcDbPolyline
 90
        4
 70
     1
 43
0.0
 10
75.35241881423019
 20
18.72758524858156
 10
75.35241881423019
 20
16.77758530148156
 10
78.00241896913019
 20
16.77758530148156
 10
78.00241896913019
 20
18.72758524858156
  0
LWPOLYLINE
  5
45C3
330
1F
100
AcDbEntity
  8
Kontruktion
100
AcDbPolyline
 90
        4
 70
     1
 43
0.0
 10
69.10241732403017
 20
18.72758524858156
 10
69.10241732403017
 20
16.77758530148156
 10
71.75241747903019
 20
16.77758530148156
 10
71.75241747903019
 20
18.72758524858156
  0
LWPOLYLINE
  5
45C4
330
1F
100
AcDbEntity
  8
Kontruktion
100
AcDbPolyline
 90
        4
 70
     1
 43
0.0
 10
62.85242328453017
 20
18.72758524858156
 10
62.85242328453017
 20
16.77758530148156
 10
65.50242343953019
 20
16.77758530148156
 10
65.50242343953019
 20
18.72758524858156
  0
LWPOLYLINE
  5
45C5
330
1F
100
AcDbEntity
  8
Kontruktion
100
AcDbPolyline
 90
        4
 70
     1
 43
0.0
 10
56.60242179443017
 20
18.72758524858156
 10
56.60242179443017
 20
16.77758530148156
 10
59.25242194943018
 20
16.77758530148156
 10
59.25242194943018
 20
18.72758524858156
  0
LWPOLYLINE
  5
45C6
330
1F
100
AcDbEntity
  8
Kontruktion
100
AcDbPolyline
 90
        4
 70
     1
 43
0.0
 10
50.35242030433017
 20
18.72758524858156
 10
50.35242030433017
 20
16.77758530148156
 10
53.00242045923017
 20
16.77758530148156
 10
53.00242045923017
 20
18.72758524858156
  0
LWPOLYLINE
  5
45C7
330
1F
100
AcDbEntity
  8
Kontruktion
100
AcDbPolyline
 90
        4
 70
     1
 43
0.0
 10
44.10241881423019
 20
18.72758524858156
 10
44.10241881423019
 20
16.77758530148156
 10
46.75241896913019
 20
16.77758530148156
 10
46.75241896913019
 20
18.72758524858156
  0
LWPOLYLINE
  5
45C8
330
1F
100
AcDbEntity
  8
Kontruktion
100
AcDbPolyline
 90
        4
 70
     1
 43
0.0
 10
37.85241732403017
 20
18.72758524858156
 10
37.85241732403017
 20
16.77758530148156
 10
40.50241747903015
 20
16.77758530148156
 10
40.50241747903015
 20
18.72758524858156
  0
LWPOLYLINE
  5
45C9
330
1F
100
AcDbEntity
  8
Kontruktion
100
AcDbPolyline
 90
        4
 70
     1
 43
0.0
 10
31.60242328453018
 20
18.72758524858156
 10
31.60242328453018
 20
16.77758530148156
 10
34.25242343953016
 20
16.77758530148156
 10
34.25242343953016
 20
18.72758524858156
  0
LWPOLYLINE
  5
45CA
330
1F
100
AcDbEntity
  8
Kontruktion
100
AcDbPolyline
 90
        4
 70
     1
 43
0.0
 10
219.1024232845302
 20
24.97758510888157
 10
219.1024232845302
 20
23.02758516178156
 10
221.7524234395302
 20
23.02758516178156
 10
221.7524234395302
 20
24.97758510888157
  0
LWPOLYLINE
  5
45CB
330
1F
100
AcDbEntity
  8
Kontruktion
100
AcDbPolyline
 90
        4
 70
     1
 43
0.0
 10
212.8524217944302
 20
24.97758510888157
 10
212.8524217944302
 20
23.02758516178156
 10
215.5024219494302
 20
23.02758516178156
 10
215.5024219494302
 20
24.97758510888157
  0
LWPOLYLINE
  5
45CC
330
1F
100
AcDbEntity
  8
Kontruktion
100
AcDbPolyline
 90
        4
 70
     1
 43
0.0
 10
206.6024203043302
 20
24.97758510888157
 10
206.6024203043302
 20
23.02758516178156
 10
209.2524204592302
 20
23.02758516178156
 10
209.2524204592302
 20
24.97758510888157
  0
LWPOLYLINE
  5
45CD
330
1F
100
AcDbEntity
  8
Kontruktion
100
AcDbPolyline
 90
        4
 70
     1
 43
0.0
 10
200.3524188142302
 20
24.97758510888157
 10
200.3524188142302
 20
23.02758516178156
 10
203.0024189691302
 20
23.02758516178156
 10
203.0024189691302
 20
24.97758510888157
  0
LWPOLYLINE
  5
45CE
330
1F
100
AcDbEntity
  8
Kontruktion
100
AcDbPolyline
 90
        4
 70
     1
 43
0.0
 10
194.1024210493302
 20
24.97758510888157
 10
194.1024210493302
 20
23.02758516178156
 10
196.7524212043302
 20
23.02758516178156
 10
196.7524212043302
 20
24.97758510888157
  0
LWPOLYLINE
  5
45CF
330
1F
100
AcDbEntity
  8
Kontruktion
100
AcDbPolyline
 90
        4
 70
     1
 43
0.0
 10
187.8524195592301
 20
24.97758510888157
 10
187.8524195592301
 20
23.02758516178156
 10
190.5024197142302
 20
23.02758516178156
 10
190.5024197142302
 20
24.97758510888157
  0
LWPOLYLINE
  5
45D0
330
1F
100
AcDbEntity
  8
Kontruktion
100
AcDbPolyline
 90
        4
 70
     1
 43
0.0
 10
181.6024217944302
 20
24.97758510888157
 10
181.6024217944302
 20
23.02758516178156
 10
184.2524219494302
 20
23.02758516178156
 10
184.2524219494302
 20
24.97758510888157
  0
LWPOLYLINE
  5
45D1
330
1F
100
AcDbEntity
  8
Kontruktion
100
AcDbPolyline
 90
        4
 70
     1
 43
0.0
 10
175.3524203043301
 20
24.97758510888157
 10
175.3524203043301
 20
23.02758516178156
 10
178.0024204592301
 20
23.02758516178156
 10
178.0024204592301
 20
24.97758510888157
  0
LWPOLYLINE
  5
45D2
330
1F
100
AcDbEntity
  8
Kontruktion
100
AcDbPolyline
 90
        4
 70
     1
 43
0.0
 10
169.1024206768302
 20
24.97758510888157
 10
169.1024206768302
 20
23.02758516178156
 10
171.7524208318302
 20
23.02758516178156
 10
171.7524208318302
 20
24.97758510888157
  0
LWPOLYLINE
  5
45D3
330
1F
100
AcDbEntity
  8
Kontruktion
100
AcDbPolyline
 90
        4
 70
     1
 43
0.0
 10
165.5024212043302
 20
24.97758510888157
 10
162.8524210493302
 20
24.97758510888157
 10
162.8524210493302
 20
23.02758516178156
 10
165.5024212043302
 20
23.02758516178156
  0
LWPOLYLINE
  5
45D4
330
1F
100
AcDbEntity
  8
Kontruktion
100
AcDbPolyline
 90
        4
 70
     1
 43
0.0
 10
25.35242179443017
 20
12.47758538828157
 10
25.35242179443017
 20
10.52758497548156
 10
28.00242194943019
 20
10.52758497548156
 10
28.00242194943019
 20
12.47758538828157
  0
LWPOLYLINE
  5
45D5
330
1F
100
AcDbEntity
  8
Kontruktion
100
AcDbPolyline
 90
        4
 70
     1
 43
0.0
 10
56.60242179443017
 20
37.47758576078155
 10
56.60242179443017
 20
35.52758441668158
 10
59.25242194943018
 20
35.52758441668158
 10
59.25242194943018
 20
37.47758576078155
  0
LWPOLYLINE
  5
45D6
330
1F
100
AcDbEntity
  8
Kontruktion
100
AcDbPolyline
 90
        4
 70
     1
 43
0.0
 10
50.35242030433017
 20
37.47758576078155
 10
50.35242030433017
 20
35.52758441668158
 10
53.00242045923017
 20
35.52758441668158
 10
53.00242045923017
 20
37.47758576078155
  0
LWPOLYLINE
  5
45D7
330
1F
100
AcDbEntity
  8
Kontruktion
100
AcDbPolyline
 90
        4
 70
     1
 43
0.0
 10
44.10241881423019
 20
37.47758576078155
 10
44.10241881423019
 20
35.52758441668158
 10
46.75241896913019
 20
35.52758441668158
 10
46.75241896913019
 20
37.47758576078155
  0
LWPOLYLINE
  5
45D8
330
1F
100
AcDbEntity
  8
Kontruktion
100
AcDbPolyline
 90
        4
 70
     1
 43
0.0
 10
37.85241732403017
 20
37.47758576078155
 10
37.85241732403017
 20
35.52758441668158
 10
40.50241747903015
 20
35.52758441668158
 10
40.50241747903015
 20
37.47758576078155
  0
LWPOLYLINE
  5
45D9
330
1F
100
AcDbEntity
  8
Kontruktion
100
AcDbPolyline
 90
        4
 70
     1
 43
0.0
 10
31.60242328453018
 20
37.47758576078155
 10
31.60242328453018
 20
35.52758441668158
 10
34.25242343953016
 20
35.52758441668158
 10
34.25242343953016
 20
37.47758576078155
  0
LWPOLYLINE
  5
45DA
330
1F
100
AcDbEntity
  8
Kontruktion
100
AcDbPolyline
 90
        4
 70
     1
 43
0.0
 10
219.1024232845302
 20
43.72758538828157
 10
219.1024232845302
 20
41.77758590678155
 10
221.7524234395302
 20
41.77758590678155
 10
221.7524234395302
 20
43.72758538828157
  0
LWPOLYLINE
  5
45DB
330
1F
100
AcDbEntity
  8
Kontruktion
100
AcDbPolyline
 90
        4
 70
     1
 43
0.0
 10
212.8524217944302
 20
43.72758538828157
 10
212.8524217944302
 20
41.77758590678155
 10
215.5024219494302
 20
41.77758590678155
 10
215.5024219494302
 20
43.72758538828157
  0
LWPOLYLINE
  5
45DC
330
1F
100
AcDbEntity
  8
Kontruktion
100
AcDbPolyline
 90
        4
 70
     1
 43
0.0
 10
206.6024203043302
 20
43.72758538828157
 10
206.6024203043302
 20
41.77758590678155
 10
209.2524204592302
 20
41.77758590678155
 10
209.2524204592302
 20
43.72758538828157
  0
LWPOLYLINE
  5
45DD
330
1F
100
AcDbEntity
  8
Kontruktion
100
AcDbPolyline
 90
        4
 70
     1
 43
0.0
 10
200.3524188142302
 20
43.72758538828157
 10
200.3524188142302
 20
41.77758590678155
 10
203.0024189691302
 20
41.77758590678155
 10
203.0024189691302
 20
43.72758538828157
  0
LWPOLYLINE
  5
45DE
330
1F
100
AcDbEntity
  8
Kontruktion
100
AcDbPolyline
 90
        4
 70
     1
 43
0.0
 10
194.1024210493302
 20
43.72758538828157
 10
194.1024210493302
 20
41.77758590678155
 10
196.7524212043302
 20
41.77758590678155
 10
196.7524212043302
 20
43.72758538828157
  0
LWPOLYLINE
  5
45DF
330
1F
100
AcDbEntity
  8
Kontruktion
100
AcDbPolyline
 90
        4
 70
     1
 43
0.0
 10
187.8524195592301
 20
43.72758538828157
 10
187.8524195592301
 20
41.77758590678155
 10
190.5024197142302
 20
41.77758590678155
 10
190.5024197142302
 20
43.72758538828157
  0
LWPOLYLINE
  5
45E0
330
1F
100
AcDbEntity
  8
Kontruktion
100
AcDbPolyline
 90
        4
 70
     1
 43
0.0
 10
181.6024217944302
 20
43.72758538828157
 10
181.6024217944302
 20
41.77758590678155
 10
184.2524219494302
 20
41.77758590678155
 10
184.2524219494302
 20
43.72758538828157
  0
LWPOLYLINE
  5
45E1
330
1F
100
AcDbEntity
  8
Kontruktion
100
AcDbPolyline
 90
        4
 70
     1
 43
0.0
 10
175.3524203043301
 20
43.72758538828157
 10
175.3524203043301
 20
41.77758590678155
 10
178.0024204592301
 20
41.77758590678155
 10
178.0024204592301
 20
43.72758538828157
  0
LWPOLYLINE
  5
45E2
330
1F
100
AcDbEntity
  8
Kontruktion
100
AcDbPolyline
 90
        4
 70
     1
 43
0.0
 10
169.1024206768302
 20
43.72758538828157
 10
169.1024206768302
 20
41.77758590678155
 10
171.7524208318302
 20
41.77758590678155
 10
171.7524208318302
 20
43.72758538828157
  0
LWPOLYLINE
  5
45E3
330
1F
100
AcDbEntity
  8
Kontruktion
100
AcDbPolyline
 90
        4
 70
     1
 43
0.0
 10
162.8524210493302
 20
43.72758538828157
 10
162.8524210493302
 20
41.77758590678155
 10
165.5024212043302
 20
41.77758590678155
 10
165.5024212043302
 20
43.72758538828157
  0
LWPOLYLINE
  5
45E4
330
1F
100
AcDbEntity
  8
Kontruktion
100
AcDbPolyline
 90
        4
 70
     1
 43
0.0
 10
156.6024204905301
 20
43.72758538828157
 10
156.6024204905301
 20
41.77758590678155
 10
159.2524206455301
 20
41.77758590678155
 10
159.2524206455301
 20
43.72758538828157
  0
LWPOLYLINE
  5
45E5
330
1F
100
AcDbEntity
  8
Kontruktion
100
AcDbPolyline
 90
        4
 70
     1
 43
0.0
 10
150.3524203974301
 20
43.72758538828157
 10
150.3524203974301
 20
41.77758590678155
 10
153.0024200867302
 20
41.77758590678155
 10
153.0024200867302
 20
43.72758538828157
  0
LWPOLYLINE
  5
45E6
330
1F
100
AcDbEntity
  8
Kontruktion
100
AcDbPolyline
 90
        4
 70
     1
 43
0.0
 10
144.1024202897302
 20
43.72758538828157
 10
144.1024202897302
 20
41.77758590678155
 10
146.7524202264302
 20
41.77758590678155
 10
146.7524202264302
 20
43.72758538828157
  0
LWPOLYLINE
  5
45E7
330
1F
100
AcDbEntity
  8
Kontruktion
100
AcDbPolyline
 90
        4
 70
     1
 43
0.0
 10
137.8524202111301
 20
43.72758538828157
 10
137.8524202111301
 20
41.77758590678155
 10
140.5024203661301
 20
41.77758590678155
 10
140.5024203661301
 20
43.72758538828157
  0
LWPOLYLINE
  5
45E8
330
1F
100
AcDbEntity
  8
Kontruktion
100
AcDbPolyline
 90
        4
 70
     1
 43
0.0
 10
131.6024201180302
 20
43.72758538828157
 10
131.6024201180302
 20
41.77758590678155
 10
134.2524202730301
 20
41.77758590678155
 10
134.2524202730301
 20
43.72758538828157
  0
LWPOLYLINE
  5
45E9
330
1F
100
AcDbEntity
  8
Kontruktion
100
AcDbPolyline
 90
        4
 70
     1
 43
0.0
 10
125.3524195592301
 20
43.72758538828157
 10
125.3524195592301
 20
41.77758590678155
 10
128.0024197142301
 20
41.77758590678155
 10
128.0024197142301
 20
43.72758538828157
  0
LWPOLYLINE
  5
45EA
330
1F
100
AcDbEntity
  8
Kontruktion
100
AcDbPolyline
 90
        4
 70
     1
 43
0.0
 10
119.1024199317301
 20
43.72758538828157
 10
119.1024199317301
 20
41.77758590678155
 10
121.7524200867302
 20
41.77758590678155
 10
121.7524200867302
 20
43.72758538828157
  0
LWPOLYLINE
  5
45EB
330
1F
100
AcDbEntity
  8
Kontruktion
100
AcDbPolyline
 90
        4
 70
     1
 43
0.0
 10
112.8524203043301
 20
43.72758538828157
 10
112.8524203043301
 20
41.77758590678155
 10
115.5024204592301
 20
41.77758590678155
 10
115.5024204592301
 20
43.72758538828157
  0
LWPOLYLINE
  5
45EC
330
1F
100
AcDbEntity
  8
Kontruktion
100
AcDbPolyline
 90
        4
 70
     1
 43
0.0
 10
106.6024188142302
 20
43.72758538828157
 10
106.6024188142302
 20
41.77758590678155
 10
109.2524189691302
 20
41.77758590678155
 10
109.2524189691302
 20
43.72758538828157
  0
LWPOLYLINE
  5
45ED
330
1F
100
AcDbEntity
  8
Kontruktion
100
AcDbPolyline
 90
        4
 70
     1
 43
0.0
 10
100.3524210493302
 20
43.72758538828157
 10
100.3524210493302
 20
41.77758590678155
 10
103.0024212043302
 20
41.77758590678155
 10
103.0024212043302
 20
43.72758538828157
  0
LWPOLYLINE
  5
45EE
330
1F
100
AcDbEntity
  8
Kontruktion
100
AcDbPolyline
 90
        4
 70
     1
 43
0.0
 10
94.10241955923018
 20
43.72758538828157
 10
94.10241955923018
 20
41.77758590678155
 10
96.75241971423018
 20
41.77758590678155
 10
96.75241971423018
 20
43.72758538828157
  0
LWPOLYLINE
  5
45EF
330
1F
100
AcDbEntity
  8
Kontruktion
100
AcDbPolyline
 90
        4
 70
     1
 43
0.0
 10
87.85242179443017
 20
43.72758538828157
 10
87.85242179443017
 20
41.77758590678155
 10
90.50242194943018
 20
41.77758590678155
 10
90.50242194943018
 20
43.72758538828157
  0
LWPOLYLINE
  5
45F0
330
1F
100
AcDbEntity
  8
Kontruktion
100
AcDbPolyline
 90
        4
 70
     1
 43
0.0
 10
81.60242030433016
 20
43.72758538828157
 10
81.60242030433016
 20
41.77758590678155
 10
84.25242045923017
 20
41.77758590678155
 10
84.25242045923017
 20
43.72758538828157
  0
LWPOLYLINE
  5
45F1
330
1F
100
AcDbEntity
  8
Kontruktion
100
AcDbPolyline
 90
        4
 70
     1
 43
0.0
 10
75.35241881423019
 20
43.72758538828157
 10
75.35241881423019
 20
41.77758590678155
 10
78.00241896913019
 20
41.77758590678155
 10
78.00241896913019
 20
43.72758538828157
  0
LWPOLYLINE
  5
45F2
330
1F
100
AcDbEntity
  8
Kontruktion
100
AcDbPolyline
 90
        4
 70
     1
 43
0.0
 10
69.10241732403017
 20
43.72758538828157
 10
69.10241732403017
 20
41.77758590678155
 10
71.75241747903019
 20
41.77758590678155
 10
71.75241747903019
 20
43.72758538828157
  0
LWPOLYLINE
  5
45F3
330
1F
100
AcDbEntity
  8
Kontruktion
100
AcDbPolyline
 90
        4
 70
     1
 43
0.0
 10
62.85242328453017
 20
43.72758538828157
 10
62.85242328453017
 20
41.77758590678155
 10
65.50242343953019
 20
41.77758590678155
 10
65.50242343953019
 20
43.72758538828157
  0
LWPOLYLINE
  5
45F4
330
1F
100
AcDbEntity
  8
Kontruktion
100
AcDbPolyline
 90
        4
 70
     1
 43
0.0
 10
56.60242179443017
 20
43.72758538828157
 10
56.60242179443017
 20
41.77758590678155
 10
59.25242194943018
 20
41.77758590678155
 10
59.25242194943018
 20
43.72758538828157
  0
LWPOLYLINE
  5
45F5
330
1F
100
AcDbEntity
  8
Kontruktion
100
AcDbPolyline
 90
        4
 70
     1
 43
0.0
 10
50.35242030433017
 20
43.72758538828157
 10
50.35242030433017
 20
41.77758590678155
 10
53.00242045923017
 20
41.77758590678155
 10
53.00242045923017
 20
43.72758538828157
  0
LWPOLYLINE
  5
45F6
330
1F
100
AcDbEntity
  8
Kontruktion
100
AcDbPolyline
 90
        4
 70
     1
 43
0.0
 10
44.10241881423019
 20
43.72758538828157
 10
44.10241881423019
 20
41.77758590678155
 10
46.75241896913019
 20
41.77758590678155
 10
46.75241896913019
 20
43.72758538828157
  0
LWPOLYLINE
  5
45F7
330
1F
100
AcDbEntity
  8
Kontruktion
100
AcDbPolyline
 90
        4
 70
     1
 43
0.0
 10
37.85241732403017
 20
43.72758538828157
 10
37.85241732403017
 20
41.77758590678155
 10
40.50241747903015
 20
41.77758590678155
 10
40.50241747903015
 20
43.72758538828157
  0
LWPOLYLINE
  5
45F8
330
1F
100
AcDbEntity
  8
Kontruktion
100
AcDbPolyline
 90
        4
 70
     1
 43
0.0
 10
31.60242328453018
 20
43.72758538828157
 10
31.60242328453018
 20
41.77758590678155
 10
34.25242343953016
 20
41.77758590678155
 10
34.25242343953016
 20
43.72758538828157
  0
LWPOLYLINE
  5
45F9
330
1F
100
AcDbEntity
  8
Kontruktion
100
AcDbPolyline
 90
        4
 70
     1
 43
0.0
 10
219.1024232845302
 20
49.97758501568156
 10
219.1024232845302
 20
48.02758553428157
 10
221.7524234395302
 20
48.02758553428157
 10
221.7524234395302
 20
49.97758501568156
  0
LWPOLYLINE
  5
45FA
330
1F
100
AcDbEntity
  8
Kontruktion
100
AcDbPolyline
 90
        4
 70
     1
 43
0.0
 10
212.8524217944302
 20
49.97758501568156
 10
212.8524217944302
 20
48.02758553428157
 10
215.5024219494302
 20
48.02758553428157
 10
215.5024219494302
 20
49.97758501568156
  0
LWPOLYLINE
  5
45FB
330
1F
100
AcDbEntity
  8
Kontruktion
100
AcDbPolyline
 90
        4
 70
     1
 43
0.0
 10
206.6024203043302
 20
49.97758501568156
 10
206.6024203043302
 20
48.02758553428157
 10
209.2524204592302
 20
48.02758553428157
 10
209.2524204592302
 20
49.97758501568156
  0
LWPOLYLINE
  5
45FC
330
1F
100
AcDbEntity
  8
Kontruktion
100
AcDbPolyline
 90
        4
 70
     1
 43
0.0
 10
200.3524188142302
 20
49.97758501568156
 10
200.3524188142302
 20
48.02758553428157
 10
203.0024189691302
 20
48.02758553428157
 10
203.0024189691302
 20
49.97758501568156
  0
LWPOLYLINE
  5
45FD
330
1F
100
AcDbEntity
  8
Kontruktion
100
AcDbPolyline
 90
        4
 70
     1
 43
0.0
 10
194.1024210493302
 20
49.97758501568156
 10
194.1024210493302
 20
48.02758553428157
 10
196.7524212043302
 20
48.02758553428157
 10
196.7524212043302
 20
49.97758501568156
  0
LWPOLYLINE
  5
45FE
330
1F
100
AcDbEntity
  8
Kontruktion
100
AcDbPolyline
 90
        4
 70
     1
 43
0.0
 10
187.8524195592301
 20
49.97758501568156
 10
187.8524195592301
 20
48.02758553428157
 10
190.5024197142302
 20
48.02758553428157
 10
190.5024197142302
 20
49.97758501568156
  0
LWPOLYLINE
  5
45FF
330
1F
100
AcDbEntity
  8
Kontruktion
100
AcDbPolyline
 90
        4
 70
     1
 43
0.0
 10
181.6024217944302
 20
49.97758501568156
 10
181.6024217944302
 20
48.02758553428157
 10
184.2524219494302
 20
48.02758553428157
 10
184.2524219494302
 20
49.97758501568156
  0
LWPOLYLINE
  5
4600
330
1F
100
AcDbEntity
  8
Kontruktion
100
AcDbPolyline
 90
        4
 70
     1
 43
0.0
 10
175.3524203043301
 20
49.97758501568156
 10
175.3524203043301
 20
48.02758553428157
 10
178.0024204592301
 20
48.02758553428157
 10
178.0024204592301
 20
49.97758501568156
  0
LWPOLYLINE
  5
4601
330
1F
100
AcDbEntity
  8
Kontruktion
100
AcDbPolyline
 90
        4
 70
     1
 43
0.0
 10
169.1024206768302
 20
49.97758501568156
 10
169.1024206768302
 20
48.02758553428157
 10
171.7524208318302
 20
48.02758553428157
 10
171.7524208318302
 20
49.97758501568156
  0
LWPOLYLINE
  5
4602
330
1F
100
AcDbEntity
  8
Kontruktion
100
AcDbPolyline
 90
        4
 70
     1
 43
0.0
 10
162.8524210493302
 20
49.97758501568156
 10
162.8524210493302
 20
48.02758553428157
 10
165.5024212043302
 20
48.02758553428157
 10
165.5024212043302
 20
49.97758501568156
  0
LWPOLYLINE
  5
4603
330
1F
100
AcDbEntity
  8
Kontruktion
100
AcDbPolyline
 90
        4
 70
     1
 43
0.0
 10
156.6024204905301
 20
49.97758501568156
 10
156.6024204905301
 20
48.02758553428157
 10
159.2524206455301
 20
48.02758553428157
 10
159.2524206455301
 20
49.97758501568156
  0
LWPOLYLINE
  5
4604
330
1F
100
AcDbEntity
  8
Kontruktion
100
AcDbPolyline
 90
        4
 70
     1
 43
0.0
 10
150.3524203974301
 20
49.97758501568156
 10
150.3524203974301
 20
48.02758553428157
 10
153.0024200867302
 20
48.02758553428157
 10
153.0024200867302
 20
49.97758501568156
  0
LWPOLYLINE
  5
4605
330
1F
100
AcDbEntity
  8
Kontruktion
100
AcDbPolyline
 90
        4
 70
     1
 43
0.0
 10
144.1024202897302
 20
49.97758501568156
 10
144.1024202897302
 20
48.02758553428157
 10
146.7524202264302
 20
48.02758553428157
 10
146.7524202264302
 20
49.97758501568156
  0
LWPOLYLINE
  5
4606
330
1F
100
AcDbEntity
  8
Kontruktion
100
AcDbPolyline
 90
        4
 70
     1
 43
0.0
 10
137.8524202111301
 20
49.97758501568156
 10
137.8524202111301
 20
48.02758553428157
 10
140.5024203661301
 20
48.02758553428157
 10
140.5024203661301
 20
49.97758501568156
  0
LWPOLYLINE
  5
4607
330
1F
100
AcDbEntity
  8
Kontruktion
100
AcDbPolyline
 90
        4
 70
     1
 43
0.0
 10
131.6024201180302
 20
49.97758501568156
 10
131.6024201180302
 20
48.02758553428157
 10
134.2524202730301
 20
48.02758553428157
 10
134.2524202730301
 20
49.97758501568156
  0
LWPOLYLINE
  5
4608
330
1F
100
AcDbEntity
  8
Kontruktion
100
AcDbPolyline
 90
        4
 70
     1
 43
0.0
 10
125.3524195592301
 20
49.97758501568156
 10
125.3524195592301
 20
48.02758553428157
 10
128.0024197142301
 20
48.02758553428157
 10
128.0024197142301
 20
49.97758501568156
  0
LWPOLYLINE
  5
4609
330
1F
100
AcDbEntity
  8
Kontruktion
100
AcDbPolyline
 90
        4
 70
     1
 43
0.0
 10
119.1024199317301
 20
49.97758501568156
 10
119.1024199317301
 20
48.02758553428157
 10
121.7524200867302
 20
48.02758553428157
 10
121.7524200867302
 20
49.97758501568156
  0
LWPOLYLINE
  5
460A
330
1F
100
AcDbEntity
  8
Kontruktion
100
AcDbPolyline
 90
        4
 70
     1
 43
0.0
 10
112.8524203043301
 20
49.97758501568156
 10
112.8524203043301
 20
48.02758553428157
 10
115.5024204592301
 20
48.02758553428157
 10
115.5024204592301
 20
49.97758501568156
  0
LWPOLYLINE
  5
460B
330
1F
100
AcDbEntity
  8
Kontruktion
100
AcDbPolyline
 90
        4
 70
     1
 43
0.0
 10
106.6024188142302
 20
49.97758501568156
 10
106.6024188142302
 20
48.02758553428157
 10
109.2524189691302
 20
48.02758553428157
 10
109.2524189691302
 20
49.97758501568156
  0
LWPOLYLINE
  5
460C
330
1F
100
AcDbEntity
  8
Kontruktion
100
AcDbPolyline
 90
        4
 70
     1
 43
0.0
 10
100.3524210493302
 20
49.97758501568156
 10
100.3524210493302
 20
48.02758553428157
 10
103.0024212043302
 20
48.02758553428157
 10
103.0024212043302
 20
49.97758501568156
  0
LWPOLYLINE
  5
460D
330
1F
100
AcDbEntity
  8
Kontruktion
100
AcDbPolyline
 90
        4
 70
     1
 43
0.0
 10
94.10241955923018
 20
49.97758501568156
 10
94.10241955923018
 20
48.02758553428157
 10
96.75241971423018
 20
48.02758553428157
 10
96.75241971423018
 20
49.97758501568156
  0
LWPOLYLINE
  5
460E
330
1F
100
AcDbEntity
  8
Kontruktion
100
AcDbPolyline
 90
        4
 70
     1
 43
0.0
 10
87.85242179443017
 20
49.97758501568156
 10
87.85242179443017
 20
48.02758553428157
 10
90.50242194943018
 20
48.02758553428157
 10
90.50242194943018
 20
49.97758501568156
  0
LWPOLYLINE
  5
460F
330
1F
100
AcDbEntity
  8
Kontruktion
100
AcDbPolyline
 90
        4
 70
     1
 43
0.0
 10
81.60242030433016
 20
49.97758501568156
 10
81.60242030433016
 20
48.02758553428157
 10
84.25242045923017
 20
48.02758553428157
 10
84.25242045923017
 20
49.97758501568156
  0
LWPOLYLINE
  5
4610
330
1F
100
AcDbEntity
  8
Kontruktion
100
AcDbPolyline
 90
        4
 70
     1
 43
0.0
 10
75.35241881423019
 20
49.97758501568156
 10
75.35241881423019
 20
48.02758553428157
 10
78.00241896913019
 20
48.02758553428157
 10
78.00241896913019
 20
49.97758501568156
  0
LWPOLYLINE
  5
4611
330
1F
100
AcDbEntity
  8
Kontruktion
100
AcDbPolyline
 90
        4
 70
     1
 43
0.0
 10
69.10241732403017
 20
49.97758501568156
 10
69.10241732403017
 20
48.02758553428157
 10
71.75241747903019
 20
48.02758553428157
 10
71.75241747903019
 20
49.97758501568156
  0
LWPOLYLINE
  5
4612
330
1F
100
AcDbEntity
  8
Kontruktion
100
AcDbPolyline
 90
        4
 70
     1
 43
0.0
 10
62.85242328453017
 20
49.97758501568156
 10
62.85242328453017
 20
48.02758553428157
 10
65.50242343953019
 20
48.02758553428157
 10
65.50242343953019
 20
49.97758501568156
  0
LWPOLYLINE
  5
4613
330
1F
100
AcDbEntity
  8
Kontruktion
100
AcDbPolyline
 90
        4
 70
     1
 43
0.0
 10
56.60242179443017
 20
49.97758501568156
 10
56.60242179443017
 20
48.02758553428157
 10
59.25242194943018
 20
48.02758553428157
 10
59.25242194943018
 20
49.97758501568156
  0
LWPOLYLINE
  5
4614
330
1F
100
AcDbEntity
  8
Kontruktion
100
AcDbPolyline
 90
        4
 70
     1
 43
0.0
 10
50.35242030433017
 20
49.97758501568156
 10
50.35242030433017
 20
48.02758553428157
 10
53.00242045923017
 20
48.02758553428157
 10
53.00242045923017
 20
49.97758501568156
  0
LWPOLYLINE
  5
4615
330
1F
100
AcDbEntity
  8
Kontruktion
100
AcDbPolyline
 90
        4
 70
     1
 43
0.0
 10
44.10241881423019
 20
49.97758501568156
 10
44.10241881423019
 20
48.02758553428157
 10
46.75241896913019
 20
48.02758553428157
 10
46.75241896913019
 20
49.97758501568156
  0
LWPOLYLINE
  5
4616
330
1F
100
AcDbEntity
  8
Kontruktion
100
AcDbPolyline
 90
        4
 70
     1
 43
0.0
 10
37.85241732403017
 20
49.97758501568156
 10
37.85241732403017
 20
48.02758553428157
 10
40.50241747903015
 20
48.02758553428157
 10
40.50241747903015
 20
49.97758501568156
  0
LWPOLYLINE
  5
4617
330
1F
100
AcDbEntity
  8
Kontruktion
100
AcDbPolyline
 90
        4
 70
     1
 43
0.0
 10
31.60242328453018
 20
49.97758501568156
 10
31.60242328453018
 20
48.02758553428157
 10
34.25242343953016
 20
48.02758553428157
 10
34.25242343953016
 20
49.97758501568156
  0
LWPOLYLINE
  5
4618
330
1F
100
AcDbEntity
  8
Kontruktion
100
AcDbPolyline
 90
        4
 70
     1
 43
0.0
 10
219.1024232845302
 20
56.22758650588156
 10
219.1024232845302
 20
54.27758702438158
 10
221.7524234395302
 20
54.27758702438158
 10
221.7524234395302
 20
56.22758650588156
  0
LWPOLYLINE
  5
4619
330
1F
100
AcDbEntity
  8
Kontruktion
100
AcDbPolyline
 90
        4
 70
     1
 43
0.0
 10
212.8524217944302
 20
56.22758650588156
 10
212.8524217944302
 20
54.27758702438158
 10
215.5024219494302
 20
54.27758702438158
 10
215.5024219494302
 20
56.22758650588156
  0
LWPOLYLINE
  5
461A
330
1F
100
AcDbEntity
  8
Kontruktion
100
AcDbPolyline
 90
        4
 70
     1
 43
0.0
 10
206.6024203043302
 20
56.22758650588156
 10
206.6024203043302
 20
54.27758702438158
 10
209.2524204592302
 20
54.27758702438158
 10
209.2524204592302
 20
56.22758650588156
  0
LWPOLYLINE
  5
461B
330
1F
100
AcDbEntity
  8
Kontruktion
100
AcDbPolyline
 90
        4
 70
     1
 43
0.0
 10
200.3524188142302
 20
56.22758650588156
 10
200.3524188142302
 20
54.27758702438158
 10
203.0024189691302
 20
54.27758702438158
 10
203.0024189691302
 20
56.22758650588156
  0
LWPOLYLINE
  5
461C
330
1F
100
AcDbEntity
  8
Kontruktion
100
AcDbPolyline
 90
        4
 70
     1
 43
0.0
 10
194.1024210493302
 20
56.22758650588156
 10
194.1024210493302
 20
54.27758702438158
 10
196.7524212043302
 20
54.27758702438158
 10
196.7524212043302
 20
56.22758650588156
  0
LWPOLYLINE
  5
461D
330
1F
100
AcDbEntity
  8
Kontruktion
100
AcDbPolyline
 90
        4
 70
     1
 43
0.0
 10
187.8524195592301
 20
56.22758650588156
 10
187.8524195592301
 20
54.27758702438158
 10
190.5024197142302
 20
54.27758702438158
 10
190.5024197142302
 20
56.22758650588156
  0
LWPOLYLINE
  5
461E
330
1F
100
AcDbEntity
  8
Kontruktion
100
AcDbPolyline
 90
        4
 70
     1
 43
0.0
 10
181.6024217944302
 20
56.22758650588156
 10
181.6024217944302
 20
54.27758702438158
 10
184.2524219494302
 20
54.27758702438158
 10
184.2524219494302
 20
56.22758650588156
  0
LWPOLYLINE
  5
461F
330
1F
100
AcDbEntity
  8
Kontruktion
100
AcDbPolyline
 90
        4
 70
     1
 43
0.0
 10
175.3524203043301
 20
56.22758650588156
 10
175.3524203043301
 20
54.27758702438158
 10
178.0024204592301
 20
54.27758702438158
 10
178.0024204592301
 20
56.22758650588156
  0
LWPOLYLINE
  5
4620
330
1F
100
AcDbEntity
  8
Kontruktion
100
AcDbPolyline
 90
        4
 70
     1
 43
0.0
 10
169.1024206768302
 20
56.22758650588156
 10
169.1024206768302
 20
54.27758702438158
 10
171.7524208318302
 20
54.27758702438158
 10
171.7524208318302
 20
56.22758650588156
  0
LWPOLYLINE
  5
4621
330
1F
100
AcDbEntity
  8
Kontruktion
100
AcDbPolyline
 90
        4
 70
     1
 43
0.0
 10
162.8524210493302
 20
56.22758650588156
 10
162.8524210493302
 20
54.27758702438158
 10
165.5024212043302
 20
54.27758702438158
 10
165.5024212043302
 20
56.22758650588156
  0
LWPOLYLINE
  5
4622
330
1F
100
AcDbEntity
  8
Kontruktion
100
AcDbPolyline
 90
        4
 70
     1
 43
0.0
 10
156.6024204905301
 20
56.22758650588156
 10
156.6024204905301
 20
54.27758702438158
 10
159.2524206455301
 20
54.27758702438158
 10
159.2524206455301
 20
56.22758650588156
  0
LWPOLYLINE
  5
4623
330
1F
100
AcDbEntity
  8
Kontruktion
100
AcDbPolyline
 90
        4
 70
     1
 43
0.0
 10
150.3524203974301
 20
56.22758650588156
 10
150.3524203974301
 20
54.27758702438158
 10
153.0024200867302
 20
54.27758702438158
 10
153.0024200867302
 20
56.22758650588156
  0
LWPOLYLINE
  5
4624
330
1F
100
AcDbEntity
  8
Kontruktion
100
AcDbPolyline
 90
        4
 70
     1
 43
0.0
 10
144.1024202897302
 20
56.22758650588156
 10
144.1024202897302
 20
54.27758702438158
 10
146.7524202264302
 20
54.27758702438158
 10
146.7524202264302
 20
56.22758650588156
  0
LWPOLYLINE
  5
4625
330
1F
100
AcDbEntity
  8
Kontruktion
100
AcDbPolyline
 90
        4
 70
     1
 43
0.0
 10
25.35242179443017
 20
56.22758650588156
 10
25.35242179443017
 20
54.27758702438158
 10
28.00242194943019
 20
54.27758702438158
 10
28.00242194943019
 20
56.22758650588156
  0
LWPOLYLINE
  5
4626
330
1F
100
AcDbEntity
  8
Kontruktion
100
AcDbPolyline
 90
        4
 70
     1
 43
0.0
 10
137.8524202111301
 20
56.22758650588156
 10
137.8524202111301
 20
54.27758702438158
 10
140.5024203661301
 20
54.27758702438158
 10
140.5024203661301
 20
56.22758650588156
  0
LWPOLYLINE
  5
4627
330
1F
100
AcDbEntity
  8
Kontruktion
100
AcDbPolyline
 90
        4
 70
     1
 43
0.0
 10
131.6024201180302
 20
56.22758650588156
 10
131.6024201180302
 20
54.27758702438158
 10
134.2524202730301
 20
54.27758702438158
 10
134.2524202730301
 20
56.22758650588156
  0
LWPOLYLINE
  5
4628
330
1F
100
AcDbEntity
  8
Kontruktion
100
AcDbPolyline
 90
        4
 70
     1
 43
0.0
 10
125.3524195592301
 20
56.22758650588156
 10
125.3524195592301
 20
54.27758702438158
 10
128.0024197142301
 20
54.27758702438158
 10
128.0024197142301
 20
56.22758650588156
  0
LWPOLYLINE
  5
4629
330
1F
100
AcDbEntity
  8
Kontruktion
100
AcDbPolyline
 90
        4
 70
     1
 43
0.0
 10
119.1024199317301
 20
56.22758650588156
 10
119.1024199317301
 20
54.27758702438158
 10
121.7524200867302
 20
54.27758702438158
 10
121.7524200867302
 20
56.22758650588156
  0
LWPOLYLINE
  5
462A
330
1F
100
AcDbEntity
  8
Kontruktion
100
AcDbPolyline
 90
        4
 70
     1
 43
0.0
 10
112.8524203043301
 20
56.22758650588156
 10
112.8524203043301
 20
54.27758702438158
 10
115.5024204592301
 20
54.27758702438158
 10
115.5024204592301
 20
56.22758650588156
  0
LWPOLYLINE
  5
462B
330
1F
100
AcDbEntity
  8
Kontruktion
100
AcDbPolyline
 90
        4
 70
     1
 43
0.0
 10
106.6024188142302
 20
56.22758650588156
 10
106.6024188142302
 20
54.27758702438158
 10
109.2524189691302
 20
54.27758702438158
 10
109.2524189691302
 20
56.22758650588156
  0
LWPOLYLINE
  5
462C
330
1F
100
AcDbEntity
  8
Kontruktion
100
AcDbPolyline
 90
        4
 70
     1
 43
0.0
 10
100.3524210493302
 20
56.22758650588156
 10
100.3524210493302
 20
54.27758702438158
 10
103.0024212043302
 20
54.27758702438158
 10
103.0024212043302
 20
56.22758650588156
  0
LWPOLYLINE
  5
462D
330
1F
100
AcDbEntity
  8
Kontruktion
100
AcDbPolyline
 90
        4
 70
     1
 43
0.0
 10
94.10241955923018
 20
56.22758650588156
 10
94.10241955923018
 20
54.27758702438158
 10
96.75241971423018
 20
54.27758702438158
 10
96.75241971423018
 20
56.22758650588156
  0
LWPOLYLINE
  5
462E
330
1F
100
AcDbEntity
  8
Kontruktion
100
AcDbPolyline
 90
        4
 70
     1
 43
0.0
 10
87.85242179443017
 20
56.22758650588156
 10
87.85242179443017
 20
54.27758702438158
 10
90.50242194943018
 20
54.27758702438158
 10
90.50242194943018
 20
56.22758650588156
  0
LWPOLYLINE
  5
462F
330
1F
100
AcDbEntity
  8
Kontruktion
100
AcDbPolyline
 90
        4
 70
     1
 43
0.0
 10
81.60242030433016
 20
56.22758650588156
 10
81.60242030433016
 20
54.27758702438158
 10
84.25242045923017
 20
54.27758702438158
 10
84.25242045923017
 20
56.22758650588156
  0
LWPOLYLINE
  5
4630
330
1F
100
AcDbEntity
  8
Kontruktion
100
AcDbPolyline
 90
        4
 70
     1
 43
0.0
 10
75.35241881423019
 20
56.22758650588156
 10
75.35241881423019
 20
54.27758702438158
 10
78.00241896913019
 20
54.27758702438158
 10
78.00241896913019
 20
56.22758650588156
  0
LWPOLYLINE
  5
4631
330
1F
100
AcDbEntity
  8
Kontruktion
100
AcDbPolyline
 90
        4
 70
     1
 43
0.0
 10
69.10241732403017
 20
56.22758650588156
 10
69.10241732403017
 20
54.27758702438158
 10
71.75241747903019
 20
54.27758702438158
 10
71.75241747903019
 20
56.22758650588156
  0
LWPOLYLINE
  5
4632
330
1F
100
AcDbEntity
  8
Kontruktion
100
AcDbPolyline
 90
        4
 70
     1
 43
0.0
 10
62.85242328453017
 20
56.22758650588156
 10
62.85242328453017
 20
54.27758702438158
 10
65.50242343953019
 20
54.27758702438158
 10
65.50242343953019
 20
56.22758650588156
  0
LWPOLYLINE
  5
4633
330
1F
100
AcDbEntity
  8
Kontruktion
100
AcDbPolyline
 90
        4
 70
     1
 43
0.0
 10
56.60242179443017
 20
56.22758650588156
 10
56.60242179443017
 20
54.27758702438158
 10
59.25242194943018
 20
54.27758702438158
 10
59.25242194943018
 20
56.22758650588156
  0
LWPOLYLINE
  5
4634
330
1F
100
AcDbEntity
  8
Kontruktion
100
AcDbPolyline
 90
        4
 70
     1
 43
0.0
 10
50.35242030433017
 20
56.22758650588156
 10
50.35242030433017
 20
54.27758702438158
 10
53.00242045923017
 20
54.27758702438158
 10
53.00242045923017
 20
56.22758650588156
  0
LWPOLYLINE
  5
4635
330
1F
100
AcDbEntity
  8
Kontruktion
100
AcDbPolyline
 90
        4
 70
     1
 43
0.0
 10
44.10241881423019
 20
56.22758650588156
 10
44.10241881423019
 20
54.27758702438158
 10
46.75241896913019
 20
54.27758702438158
 10
46.75241896913019
 20
56.22758650588156
  0
LWPOLYLINE
  5
4636
330
1F
100
AcDbEntity
  8
Kontruktion
100
AcDbPolyline
 90
        4
 70
     1
 43
0.0
 10
37.85241732403017
 20
56.22758650588156
 10
37.85241732403017
 20
54.27758702438158
 10
40.50241747903015
 20
54.27758702438158
 10
40.50241747903015
 20
56.22758650588156
  0
LWPOLYLINE
  5
4637
330
1F
100
AcDbEntity
  8
Kontruktion
100
AcDbPolyline
 90
        4
 70
     1
 43
0.0
 10
31.60242328453018
 20
56.22758650588156
 10
31.60242328453018
 20
54.27758702438158
 10
34.25242343953016
 20
54.27758702438158
 10
34.25242343953016
 20
56.22758650588156
  0
LWPOLYLINE
  5
4638
330
1F
100
AcDbEntity
  8
Kontruktion
100
AcDbPolyline
 90
        4
 70
     1
 43
0.0
 10
219.1024232845302
 20
31.22758520198156
 10
219.1024232845302
 20
29.27758572058157
 10
221.7524234395302
 20
29.27758572058157
 10
221.7524234395302
 20
31.22758520198156
  0
LWPOLYLINE
  5
4639
330
1F
100
AcDbEntity
  8
Kontruktion
100
AcDbPolyline
 90
        4
 70
     1
 43
0.0
 10
212.8524217944302
 20
31.22758520198156
 10
212.8524217944302
 20
29.27758572058157
 10
215.5024219494302
 20
29.27758572058157
 10
215.5024219494302
 20
31.22758520198156
  0
LWPOLYLINE
  5
463A
330
1F
100
AcDbEntity
  8
Kontruktion
100
AcDbPolyline
 90
        4
 70
     1
 43
0.0
 10
206.6024203043302
 20
31.22758520198156
 10
206.6024203043302
 20
29.27758572058157
 10
209.2524204592302
 20
29.27758572058157
 10
209.2524204592302
 20
31.22758520198156
  0
LWPOLYLINE
  5
463B
330
1F
100
AcDbEntity
  8
Kontruktion
100
AcDbPolyline
 90
        4
 70
     1
 43
0.0
 10
200.3524188142302
 20
31.22758520198156
 10
200.3524188142302
 20
29.27758572058157
 10
203.0024189691302
 20
29.27758572058157
 10
203.0024189691302
 20
31.22758520198156
  0
LWPOLYLINE
  5
463C
330
1F
100
AcDbEntity
  8
Kontruktion
100
AcDbPolyline
 90
        4
 70
     1
 43
0.0
 10
194.1024210493302
 20
31.22758520198156
 10
194.1024210493302
 20
29.27758572058157
 10
196.7524212043302
 20
29.27758572058157
 10
196.7524212043302
 20
31.22758520198156
  0
LWPOLYLINE
  5
463D
330
1F
100
AcDbEntity
  8
Kontruktion
100
AcDbPolyline
 90
        4
 70
     1
 43
0.0
 10
187.8524195592301
 20
31.22758520198156
 10
187.8524195592301
 20
29.27758572058157
 10
190.5024197142302
 20
29.27758572058157
 10
190.5024197142302
 20
31.22758520198156
  0
LWPOLYLINE
  5
463E
330
1F
100
AcDbEntity
  8
Kontruktion
100
AcDbPolyline
 90
        4
 70
     1
 43
0.0
 10
181.6024217944302
 20
31.22758520198156
 10
181.6024217944302
 20
29.27758572058157
 10
184.2524219494302
 20
29.27758572058157
 10
184.2524219494302
 20
31.22758520198156
  0
LWPOLYLINE
  5
463F
330
1F
100
AcDbEntity
  8
Kontruktion
100
AcDbPolyline
 90
        4
 70
     1
 43
0.0
 10
175.3524203043301
 20
31.22758520198156
 10
175.3524203043301
 20
29.27758572058157
 10
178.0024204592301
 20
29.27758572058157
 10
178.0024204592301
 20
31.22758520198156
  0
LWPOLYLINE
  5
4640
330
1F
100
AcDbEntity
  8
Kontruktion
100
AcDbPolyline
 90
        4
 70
     1
 43
0.0
 10
169.1024206768302
 20
31.22758520198156
 10
169.1024206768302
 20
29.27758572058157
 10
171.7524208318302
 20
29.27758572058157
 10
171.7524208318302
 20
31.22758520198156
  0
LWPOLYLINE
  5
4641
330
1F
100
AcDbEntity
  8
Kontruktion
100
AcDbPolyline
 90
        4
 70
     1
 43
0.0
 10
162.8524210493302
 20
31.22758520198156
 10
162.8524210493302
 20
29.27758572058157
 10
165.5024212043302
 20
29.27758572058157
 10
165.5024212043302
 20
31.22758520198156
  0
LWPOLYLINE
  5
4642
330
1F
100
AcDbEntity
  8
Kontruktion
100
AcDbPolyline
 90
        4
 70
     1
 43
0.0
 10
156.6024204905301
 20
31.22758520198156
 10
156.6024204905301
 20
29.27758572058157
 10
159.2524206455301
 20
29.27758572058157
 10
159.2524206455301
 20
31.22758520198156
  0
LWPOLYLINE
  5
4643
330
1F
100
AcDbEntity
  8
Kontruktion
100
AcDbPolyline
 90
        4
 70
     1
 43
0.0
 10
150.3524203974301
 20
31.22758520198156
 10
150.3524203974301
 20
29.27758572058157
 10
153.0024200867302
 20
29.27758572058157
 10
153.0024200867302
 20
31.22758520198156
  0
LWPOLYLINE
  5
4644
330
1F
100
AcDbEntity
  8
Kontruktion
100
AcDbPolyline
 90
        4
 70
     1
 43
0.0
 10
144.1024202897302
 20
31.22758520198156
 10
144.1024202897302
 20
29.27758572058157
 10
146.7524202264302
 20
29.27758572058157
 10
146.7524202264302
 20
31.22758520198156
  0
LWPOLYLINE
  5
4645
330
1F
100
AcDbEntity
  8
Kontruktion
100
AcDbPolyline
 90
        4
 70
     1
 43
0.0
 10
137.8524202111301
 20
31.22758520198156
 10
137.8524202111301
 20
29.27758572058157
 10
140.5024203661301
 20
29.27758572058157
 10
140.5024203661301
 20
31.22758520198156
  0
LWPOLYLINE
  5
4646
330
1F
100
AcDbEntity
  8
Kontruktion
100
AcDbPolyline
 90
        4
 70
     1
 43
0.0
 10
131.6024201180302
 20
31.22758520198156
 10
131.6024201180302
 20
29.27758572058157
 10
134.2524202730301
 20
29.27758572058157
 10
134.2524202730301
 20
31.22758520198156
  0
LWPOLYLINE
  5
4647
330
1F
100
AcDbEntity
  8
Kontruktion
100
AcDbPolyline
 90
        4
 70
     1
 43
0.0
 10
125.3524195592301
 20
31.22758520198156
 10
125.3524195592301
 20
29.27758572058157
 10
128.0024197142301
 20
29.27758572058157
 10
128.0024197142301
 20
31.22758520198156
  0
LWPOLYLINE
  5
4648
330
1F
100
AcDbEntity
  8
Kontruktion
100
AcDbPolyline
 90
        4
 70
     1
 43
0.0
 10
119.1024199317301
 20
31.22758520198156
 10
119.1024199317301
 20
29.27758572058157
 10
121.7524200867302
 20
29.27758572058157
 10
121.7524200867302
 20
31.22758520198156
  0
LWPOLYLINE
  5
4649
330
1F
100
AcDbEntity
  8
Kontruktion
100
AcDbPolyline
 90
        4
 70
     1
 43
0.0
 10
112.8524203043301
 20
31.22758520198156
 10
112.8524203043301
 20
29.27758572058157
 10
115.5024204592301
 20
29.27758572058157
 10
115.5024204592301
 20
31.22758520198156
  0
LWPOLYLINE
  5
464A
330
1F
100
AcDbEntity
  8
Kontruktion
100
AcDbPolyline
 90
        4
 70
     1
 43
0.0
 10
106.6024188142302
 20
31.22758520198156
 10
106.6024188142302
 20
29.27758572058157
 10
109.2524189691302
 20
29.27758572058157
 10
109.2524189691302
 20
31.22758520198156
  0
LWPOLYLINE
  5
464B
330
1F
100
AcDbEntity
  8
Kontruktion
100
AcDbPolyline
 90
        4
 70
     1
 43
0.0
 10
100.3524210493302
 20
31.22758520198156
 10
100.3524210493302
 20
29.27758572058157
 10
103.0024212043302
 20
29.27758572058157
 10
103.0024212043302
 20
31.22758520198156
  0
LWPOLYLINE
  5
464C
330
1F
100
AcDbEntity
  8
Kontruktion
100
AcDbPolyline
 90
        4
 70
     1
 43
0.0
 10
94.10241955923018
 20
31.22758520198156
 10
94.10241955923018
 20
29.27758572058157
 10
96.75241971423018
 20
29.27758572058157
 10
96.75241971423018
 20
31.22758520198156
  0
LWPOLYLINE
  5
464D
330
1F
100
AcDbEntity
  8
Kontruktion
100
AcDbPolyline
 90
        4
 70
     1
 43
0.0
 10
87.85242179443017
 20
31.22758520198156
 10
87.85242179443017
 20
29.27758572058157
 10
90.50242194943018
 20
29.27758572058157
 10
90.50242194943018
 20
31.22758520198156
  0
LWPOLYLINE
  5
464E
330
1F
100
AcDbEntity
  8
Kontruktion
100
AcDbPolyline
 90
        4
 70
     1
 43
0.0
 10
81.60242030433016
 20
31.22758520198156
 10
81.60242030433016
 20
29.27758572058157
 10
84.25242045923017
 20
29.27758572058157
 10
84.25242045923017
 20
31.22758520198156
  0
LWPOLYLINE
  5
464F
330
1F
100
AcDbEntity
  8
Kontruktion
100
AcDbPolyline
 90
        4
 70
     1
 43
0.0
 10
75.35241881423019
 20
31.22758520198156
 10
75.35241881423019
 20
29.27758572058157
 10
78.00241896913019
 20
29.27758572058157
 10
78.00241896913019
 20
31.22758520198156
  0
LWPOLYLINE
  5
4650
330
1F
100
AcDbEntity
  8
Kontruktion
100
AcDbPolyline
 90
        4
 70
     1
 43
0.0
 10
69.10241732403017
 20
31.22758520198156
 10
69.10241732403017
 20
29.27758572058157
 10
71.75241747903019
 20
29.27758572058157
 10
71.75241747903019
 20
31.22758520198156
  0
LWPOLYLINE
  5
4651
330
1F
100
AcDbEntity
  8
Kontruktion
100
AcDbPolyline
 90
        4
 70
     1
 43
0.0
 10
62.85242328453017
 20
31.22758520198156
 10
62.85242328453017
 20
29.27758572058157
 10
65.50242343953019
 20
29.27758572058157
 10
65.50242343953019
 20
31.22758520198156
  0
LWPOLYLINE
  5
4652
330
1F
100
AcDbEntity
  8
Kontruktion
100
AcDbPolyline
 90
        4
 70
     1
 43
0.0
 10
56.60242179443017
 20
31.22758520198156
 10
56.60242179443017
 20
29.27758572058157
 10
59.25242194943018
 20
29.27758572058157
 10
59.25242194943018
 20
31.22758520198156
  0
LWPOLYLINE
  5
4653
330
1F
100
AcDbEntity
  8
Kontruktion
100
AcDbPolyline
 90
        4
 70
     1
 43
0.0
 10
50.35242030433017
 20
31.22758520198156
 10
50.35242030433017
 20
29.27758572058157
 10
53.00242045923017
 20
29.27758572058157
 10
53.00242045923017
 20
31.22758520198156
  0
LWPOLYLINE
  5
4654
330
1F
100
AcDbEntity
  8
Kontruktion
100
AcDbPolyline
 90
        4
 70
     1
 43
0.0
 10
44.10241881423019
 20
31.22758520198156
 10
44.10241881423019
 20
29.27758572058157
 10
46.75241896913019
 20
29.27758572058157
 10
46.75241896913019
 20
31.22758520198156
  0
LWPOLYLINE
  5
4655
330
1F
100
AcDbEntity
  8
Kontruktion
100
AcDbPolyline
 90
        4
 70
     1
 43
0.0
 10
37.85241732403017
 20
31.22758520198156
 10
37.85241732403017
 20
29.27758572058157
 10
40.50241747903015
 20
29.27758572058157
 10
40.50241747903015
 20
31.22758520198156
  0
LWPOLYLINE
  5
4656
330
1F
100
AcDbEntity
  8
Kontruktion
100
AcDbPolyline
 90
        4
 70
     1
 43
0.0
 10
31.60242328453018
 20
31.22758520198156
 10
31.60242328453018
 20
29.27758572058157
 10
34.25242343953016
 20
29.27758572058157
 10
34.25242343953016
 20
31.22758520198156
  0
LWPOLYLINE
  5
4657
330
1F
100
AcDbEntity
  8
Kontruktion
100
AcDbPolyline
 90
        4
 70
     1
 43
0.0
 10
219.1024232845302
 20
37.47758576078155
 10
219.1024232845302
 20
35.52758441668158
 10
221.7524234395302
 20
35.52758441668158
 10
221.7524234395302
 20
37.47758576078155
  0
LWPOLYLINE
  5
4658
330
1F
100
AcDbEntity
  8
Kontruktion
100
AcDbPolyline
 90
        4
 70
     1
 43
0.0
 10
212.8524217944302
 20
37.47758576078155
 10
212.8524217944302
 20
35.52758441668158
 10
215.5024219494302
 20
35.52758441668158
 10
215.5024219494302
 20
37.47758576078155
  0
LWPOLYLINE
  5
4659
330
1F
100
AcDbEntity
  8
Kontruktion
100
AcDbPolyline
 90
        4
 70
     1
 43
0.0
 10
206.6024203043302
 20
37.47758576078155
 10
206.6024203043302
 20
35.52758441668158
 10
209.2524204592302
 20
35.52758441668158
 10
209.2524204592302
 20
37.47758576078155
  0
LWPOLYLINE
  5
465A
330
1F
100
AcDbEntity
  8
Kontruktion
100
AcDbPolyline
 90
        4
 70
     1
 43
0.0
 10
200.3524188142302
 20
37.47758576078155
 10
200.3524188142302
 20
35.52758441668158
 10
203.0024189691302
 20
35.52758441668158
 10
203.0024189691302
 20
37.47758576078155
  0
LWPOLYLINE
  5
465B
330
1F
100
AcDbEntity
  8
Kontruktion
100
AcDbPolyline
 90
        4
 70
     1
 43
0.0
 10
194.1024210493302
 20
37.47758576078155
 10
194.1024210493302
 20
35.52758441668158
 10
196.7524212043302
 20
35.52758441668158
 10
196.7524212043302
 20
37.47758576078155
  0
LWPOLYLINE
  5
465C
330
1F
100
AcDbEntity
  8
Kontruktion
100
AcDbPolyline
 90
        4
 70
     1
 43
0.0
 10
187.8524195592301
 20
37.47758576078155
 10
187.8524195592301
 20
35.52758441668158
 10
190.5024197142302
 20
35.52758441668158
 10
190.5024197142302
 20
37.47758576078155
  0
LWPOLYLINE
  5
465D
330
1F
100
AcDbEntity
  8
Kontruktion
100
AcDbPolyline
 90
        4
 70
     1
 43
0.0
 10
181.6024217944302
 20
37.47758576078155
 10
181.6024217944302
 20
35.52758441668158
 10
184.2524219494302
 20
35.52758441668158
 10
184.2524219494302
 20
37.47758576078155
  0
LWPOLYLINE
  5
465E
330
1F
100
AcDbEntity
  8
Kontruktion
100
AcDbPolyline
 90
        4
 70
     1
 43
0.0
 10
175.3524203043301
 20
37.47758576078155
 10
175.3524203043301
 20
35.52758441668158
 10
178.0024204592301
 20
35.52758441668158
 10
178.0024204592301
 20
37.47758576078155
  0
LWPOLYLINE
  5
465F
330
1F
100
AcDbEntity
  8
Kontruktion
100
AcDbPolyline
 90
        4
 70
     1
 43
0.0
 10
169.1024206768302
 20
37.47758576078155
 10
169.1024206768302
 20
35.52758441668158
 10
171.7524208318302
 20
35.52758441668158
 10
171.7524208318302
 20
37.47758576078155
  0
LWPOLYLINE
  5
4660
330
1F
100
AcDbEntity
  8
Kontruktion
100
AcDbPolyline
 90
        4
 70
     1
 43
0.0
 10
162.8524210493302
 20
37.47758576078155
 10
162.8524210493302
 20
35.52758441668158
 10
165.5024212043302
 20
35.52758441668158
 10
165.5024212043302
 20
37.47758576078155
  0
LWPOLYLINE
  5
4661
330
1F
100
AcDbEntity
  8
Kontruktion
100
AcDbPolyline
 90
        4
 70
     1
 43
0.0
 10
156.6024204905301
 20
37.47758576078155
 10
156.6024204905301
 20
35.52758441668158
 10
159.2524206455301
 20
35.52758441668158
 10
159.2524206455301
 20
37.47758576078155
  0
LWPOLYLINE
  5
4662
330
1F
100
AcDbEntity
  8
Kontruktion
100
AcDbPolyline
 90
        4
 70
     1
 43
0.0
 10
150.3524203974301
 20
37.47758576078155
 10
150.3524203974301
 20
35.52758441668158
 10
153.0024200867302
 20
35.52758441668158
 10
153.0024200867302
 20
37.47758576078155
  0
LWPOLYLINE
  5
4663
330
1F
100
AcDbEntity
  8
Kontruktion
100
AcDbPolyline
 90
        4
 70
     1
 43
0.0
 10
144.1024202897302
 20
37.47758576078155
 10
144.1024202897302
 20
35.52758441668158
 10
146.7524202264302
 20
35.52758441668158
 10
146.7524202264302
 20
37.47758576078155
  0
LWPOLYLINE
  5
4664
330
1F
100
AcDbEntity
  8
Kontruktion
100
AcDbPolyline
 90
        4
 70
     1
 43
0.0
 10
137.8524202111301
 20
37.47758576078155
 10
137.8524202111301
 20
35.52758441668158
 10
140.5024203661301
 20
35.52758441668158
 10
140.5024203661301
 20
37.47758576078155
  0
LWPOLYLINE
  5
4665
330
1F
100
AcDbEntity
  8
Kontruktion
100
AcDbPolyline
 90
        4
 70
     1
 43
0.0
 10
131.6024201180302
 20
37.47758576078155
 10
131.6024201180302
 20
35.52758441668158
 10
134.2524202730301
 20
35.52758441668158
 10
134.2524202730301
 20
37.47758576078155
  0
LWPOLYLINE
  5
4666
330
1F
100
AcDbEntity
  8
Kontruktion
100
AcDbPolyline
 90
        4
 70
     1
 43
0.0
 10
125.3524195592301
 20
37.47758576078155
 10
125.3524195592301
 20
35.52758441668158
 10
128.0024197142301
 20
35.52758441668158
 10
128.0024197142301
 20
37.47758576078155
  0
LWPOLYLINE
  5
4667
330
1F
100
AcDbEntity
  8
Kontruktion
100
AcDbPolyline
 90
        4
 70
     1
 43
0.0
 10
119.1024199317301
 20
37.47758576078155
 10
119.1024199317301
 20
35.52758441668158
 10
121.7524200867302
 20
35.52758441668158
 10
121.7524200867302
 20
37.47758576078155
  0
LWPOLYLINE
  5
4668
330
1F
100
AcDbEntity
  8
Kontruktion
100
AcDbPolyline
 90
        4
 70
     1
 43
0.0
 10
112.8524203043301
 20
37.47758576078155
 10
112.8524203043301
 20
35.52758441668158
 10
115.5024204592301
 20
35.52758441668158
 10
115.5024204592301
 20
37.47758576078155
  0
LWPOLYLINE
  5
4669
330
1F
100
AcDbEntity
  8
Kontruktion
100
AcDbPolyline
 90
        4
 70
     1
 43
0.0
 10
106.6024188142302
 20
37.47758576078155
 10
106.6024188142302
 20
35.52758441668158
 10
109.2524189691302
 20
35.52758441668158
 10
109.2524189691302
 20
37.47758576078155
  0
LWPOLYLINE
  5
466A
330
1F
100
AcDbEntity
  8
Kontruktion
100
AcDbPolyline
 90
        4
 70
     1
 43
0.0
 10
100.3524210493302
 20
37.47758576078155
 10
100.3524210493302
 20
35.52758441668158
 10
103.0024212043302
 20
35.52758441668158
 10
103.0024212043302
 20
37.47758576078155
  0
LWPOLYLINE
  5
466B
330
1F
100
AcDbEntity
  8
Kontruktion
100
AcDbPolyline
 90
        4
 70
     1
 43
0.0
 10
94.10241955923018
 20
37.47758576078155
 10
94.10241955923018
 20
35.52758441668158
 10
96.75241971423018
 20
35.52758441668158
 10
96.75241971423018
 20
37.47758576078155
  0
LWPOLYLINE
  5
466C
330
1F
100
AcDbEntity
  8
Kontruktion
100
AcDbPolyline
 90
        4
 70
     1
 43
0.0
 10
87.85242179443017
 20
37.47758576078155
 10
87.85242179443017
 20
35.52758441668158
 10
90.50242194943018
 20
35.52758441668158
 10
90.50242194943018
 20
37.47758576078155
  0
LWPOLYLINE
  5
466D
330
1F
100
AcDbEntity
  8
Kontruktion
100
AcDbPolyline
 90
        4
 70
     1
 43
0.0
 10
81.60242030433016
 20
37.47758576078155
 10
81.60242030433016
 20
35.52758441668158
 10
84.25242045923017
 20
35.52758441668158
 10
84.25242045923017
 20
37.47758576078155
  0
LWPOLYLINE
  5
466E
330
1F
100
AcDbEntity
  8
Kontruktion
100
AcDbPolyline
 90
        4
 70
     1
 43
0.0
 10
75.35241881423019
 20
37.47758576078155
 10
75.35241881423019
 20
35.52758441668158
 10
78.00241896913019
 20
35.52758441668158
 10
78.00241896913019
 20
37.47758576078155
  0
LWPOLYLINE
  5
466F
330
1F
100
AcDbEntity
  8
Kontruktion
100
AcDbPolyline
 90
        4
 70
     1
 43
0.0
 10
69.10241732403017
 20
37.47758576078155
 10
69.10241732403017
 20
35.52758441668158
 10
71.75241747903019
 20
35.52758441668158
 10
71.75241747903019
 20
37.47758576078155
  0
LWPOLYLINE
  5
4670
330
1F
100
AcDbEntity
  8
Kontruktion
100
AcDbPolyline
 90
        4
 70
     1
 43
0.0
 10
62.85242328453017
 20
37.47758576078155
 10
62.85242328453017
 20
35.52758441668158
 10
65.50242343953019
 20
35.52758441668158
 10
65.50242343953019
 20
37.47758576078155
  0
LWPOLYLINE
  5
4671
330
1F
100
AcDbEntity
  8
Kontruktion
100
AcDbPolyline
 90
        8
 70
     1
 43
0.0
 10
24.55242112683019
 20
58.37758564748156
 10
222.5524166565302
 20
58.37758564748156
 42
-0.4142135623730951
 10
223.5524166565302
 20
57.37758564748157
 10
223.5524166565302
 20
9.373337532095206
 42
-0.4142198137742406
 10
222.5523953129588
 20
8.373337532322983
 10
24.55239978325878
 20
8.377563559365702
 42
-0.4142073109995831
 10
23.55242112683018
 20
9.377563559137929
 10
23.55242112683018
 20
57.37758564748156
 42
-0.4142135623730951
  0
LWPOLYLINE
  5
4672
330
1F
100
AcDbEntity
  8
Kontruktion
100
AcDbPolyline
 90
        4
 70
     1
 43
0.0
 10
223.5622141700302
 20
-41.26062476009934
 10
23.54262361333019
 20
-41.26062476009934
 10
23.54262361333019
 20
-42.86062470509932
 10
223.5622141700302
 20
-42.86062470509932
  0
LWPOLYLINE
  5
4673
330
1F
100
AcDbEntity
  8
Kontruktion
100
AcDbPolyline
 90
        4
 70
     0
 43
0.0
 10
150.3524203974301
 20
-42.86062470509932
 10
150.3524203974301
 20
-44.06062466019935
 10
153.0024200867302
 20
-44.06062466019935
 10
153.0024200867302
 20
-42.86062470509932
  0
LWPOLYLINE
  5
4674
330
1F
100
AcDbEntity
  8
Kontruktion
100
AcDbPolyline
 90
        4
 70
     0
 43
0.0
 10
144.1024202897302
 20
-42.86062470509932
 10
144.1024202897302
 20
-44.06062466019935
 10
146.7524202264302
 20
-44.06062466019935
 10
146.7524202264302
 20
-42.86062470509932
  0
LWPOLYLINE
  5
4675
330
1F
100
AcDbEntity
  8
Kontruktion
100
AcDbPolyline
 90
        4
 70
     0
 43
0.0
 10
40.50241747903015
 20
-42.86062470509932
 10
40.50241747903015
 20
-44.06062466019935
 10
37.85241732403017
 20
-44.06062466019935
 10
37.85241732403017
 20
-42.86062470509932
  0
LWPOLYLINE
  5
4676
330
1F
100
AcDbEntity
  8
Kontruktion
100
AcDbPolyline
 90
        4
 70
     0
 43
0.0
 10
125.3524195592301
 20
-42.86062470509932
 10
125.3524195592301
 20
-44.06062466019935
 10
128.0024197142301
 20
-44.06062466019935
 10
128.0024197142301
 20
-42.86062470509932
  0
LWPOLYLINE
  5
4677
330
1F
100
AcDbEntity
  8
Kontruktion
100
AcDbPolyline
 90
        4
 70
     0
 43
0.0
 10
31.60242328453018
 20
-42.86062470509932
 10
31.60242328453018
 20
-44.06062466019935
 10
34.25242343953016
 20
-44.06062466019935
 10
34.25242343953016
 20
-42.86062470509932
  0
LWPOLYLINE
  5
4678
330
1F
100
AcDbEntity
  8
Kontruktion
100
AcDbPolyline
 90
        4
 70
     0
 43
0.0
 10
121.7524200867302
 20
-42.86062470509932
 10
121.7524200867302
 20
-44.06062466019935
 10
119.1024199317301
 20
-44.06062466019935
 10
119.1024199317301
 20
-42.86062470509932
  0
LWPOLYLINE
  5
4679
330
1F
100
AcDbEntity
  8
Kontruktion
100
AcDbPolyline
 90
        4
 70
     0
 43
0.0
 10
134.2524202730301
 20
-42.86062470509932
 10
134.2524202730301
 20
-44.06062466019935
 10
131.6024201180302
 20
-44.06062466019935
 10
131.6024201180302
 20
-42.86062470509932
  0
LWPOLYLINE
  5
467A
330
1F
100
AcDbEntity
  8
Kontruktion
100
AcDbPolyline
 90
        4
 70
     0
 43
0.0
 10
71.75241747903019
 20
-42.86062470509932
 10
71.75241747903019
 20
-44.06062466019935
 10
69.10241732403017
 20
-44.06062466019935
 10
69.10241732403017
 20
-42.86062470509932
  0
LWPOLYLINE
  5
467B
330
1F
100
AcDbEntity
  8
Kontruktion
100
AcDbPolyline
 90
        4
 70
     0
 43
0.0
 10
112.8524203043301
 20
-42.86062470509932
 10
112.8524203043301
 20
-44.06062466019935
 10
115.5024204592301
 20
-44.06062466019935
 10
115.5024204592301
 20
-42.86062470509932
  0
LWPOLYLINE
  5
467C
330
1F
100
AcDbEntity
  8
Kontruktion
100
AcDbPolyline
 90
        4
 70
     0
 43
0.0
 10
181.6024217944302
 20
-42.86062470509932
 10
181.6024217944302
 20
-44.06062466019935
 10
184.2524219494302
 20
-44.06062466019935
 10
184.2524219494302
 20
-42.86062470509932
  0
LWPOLYLINE
  5
467D
330
1F
100
AcDbEntity
  8
Kontruktion
100
AcDbPolyline
 90
        4
 70
     0
 43
0.0
 10
56.60242179443017
 20
-42.86062470509932
 10
56.60242179443017
 20
-44.06062466019935
 10
59.25242194943018
 20
-44.06062466019935
 10
59.25242194943018
 20
-42.86062470509932
  0
LWPOLYLINE
  5
467E
330
1F
100
AcDbEntity
  8
Kontruktion
100
AcDbPolyline
 90
        4
 70
     0
 43
0.0
 10
65.50242343953019
 20
-42.86062470509932
 10
65.50242343953019
 20
-44.06062466019935
 10
62.85242328453017
 20
-44.06062466019935
 10
62.85242328453017
 20
-42.86062470509932
  0
LWPOLYLINE
  5
467F
330
1F
100
AcDbEntity
  8
Kontruktion
100
AcDbPolyline
 90
        4
 70
     0
 43
0.0
 10
106.6024188142302
 20
-42.86062470509932
 10
106.6024188142302
 20
-44.06062466019935
 10
109.2524189691302
 20
-44.06062466019935
 10
109.2524189691302
 20
-42.86062470509932
  0
LWPOLYLINE
  5
4680
330
1F
100
AcDbEntity
  8
Kontruktion
100
AcDbPolyline
 90
        4
 70
     0
 43
0.0
 10
175.3524203043301
 20
-42.86062470509932
 10
175.3524203043301
 20
-44.06062466019935
 10
178.0024204592301
 20
-44.06062466019935
 10
178.0024204592301
 20
-42.86062470509932
  0
LWPOLYLINE
  5
4681
330
1F
100
AcDbEntity
  8
Kontruktion
100
AcDbPolyline
 90
        4
 70
     0
 43
0.0
 10
103.0024212043302
 20
-42.86062470509932
 10
103.0024212043302
 20
-44.06062466019935
 10
100.3524210493302
 20
-44.06062466019935
 10
100.3524210493302
 20
-42.86062470509932
  0
LWPOLYLINE
  5
4682
330
1F
100
AcDbEntity
  8
Kontruktion
100
AcDbPolyline
 90
        4
 70
     0
 43
0.0
 10
212.8524217944302
 20
-42.86062470509932
 10
212.8524217944302
 20
-44.06062466019935
 10
215.5024219494302
 20
-44.06062466019935
 10
215.5024219494302
 20
-42.86062470509932
  0
LWPOLYLINE
  5
4683
330
1F
100
AcDbEntity
  8
Kontruktion
100
AcDbPolyline
 90
        4
 70
     0
 43
0.0
 10
206.6024203043302
 20
-42.86062470509932
 10
206.6024203043302
 20
-44.06062466019935
 10
209.2524204592302
 20
-44.06062466019935
 10
209.2524204592302
 20
-42.86062470509932
  0
LWPOLYLINE
  5
4684
330
1F
100
AcDbEntity
  8
Kontruktion
100
AcDbPolyline
 90
        4
 70
     0
 43
0.0
 10
87.85242179443017
 20
-42.86062470509932
 10
87.85242179443017
 20
-44.06062466019935
 10
90.50242194943018
 20
-44.06062466019935
 10
90.50242194943018
 20
-42.86062470509932
  0
LWPOLYLINE
  5
4685
330
1F
100
AcDbEntity
  8
Kontruktion
100
AcDbPolyline
 90
        4
 70
     0
 43
0.0
 10
159.2524206455301
 20
-42.86062470509932
 10
159.2524206455301
 20
-44.06062466019935
 10
156.6024204905301
 20
-44.06062466019935
 10
156.6024204905301
 20
-42.86062470509932
  0
LWPOLYLINE
  5
4686
330
1F
100
AcDbEntity
  8
Kontruktion
100
AcDbPolyline
 90
        4
 70
     0
 43
0.0
 10
28.00242194943019
 20
-42.86062470509932
 10
28.00242194943019
 20
-44.06062466019935
 10
25.35242179443017
 20
-44.06062466019935
 10
25.35242179443017
 20
-42.86062470509932
  0
LWPOLYLINE
  5
4687
330
1F
100
AcDbEntity
  8
Kontruktion
100
AcDbPolyline
 90
        4
 70
     0
 43
0.0
 10
169.1024206768302
 20
-42.86062470509932
 10
169.1024206768302
 20
-44.06062466019935
 10
171.7524208318302
 20
-44.06062466019935
 10
171.7524208318302
 20
-42.86062470509932
  0
LWPOLYLINE
  5
4688
330
1F
100
AcDbEntity
  8
Kontruktion
100
AcDbPolyline
 90
        4
 70
     0
 43
0.0
 10
81.60242030433016
 20
-42.86062470509932
 10
81.60242030433016
 20
-44.06062466019935
 10
84.25242045923017
 20
-44.06062466019935
 10
84.25242045923017
 20
-42.86062470509932
  0
LWPOLYLINE
  5
4689
330
1F
100
AcDbEntity
  8
Kontruktion
100
AcDbPolyline
 90
        4
 70
     0
 43
0.0
 10
96.75241971423018
 20
-42.86062470509932
 10
96.75241971423018
 20
-44.06062466019935
 10
94.10241955923018
 20
-44.06062466019935
 10
94.10241955923018
 20
-42.86062470509932
  0
LWPOLYLINE
  5
468A
330
1F
100
AcDbEntity
  8
Kontruktion
100
AcDbPolyline
 90
        4
 70
     0
 43
0.0
 10
140.5024203661301
 20
-42.86062470509932
 10
140.5024203661301
 20
-44.06062466019935
 10
137.8524202111301
 20
-44.06062466019935
 10
137.8524202111301
 20
-42.86062470509932
  0
LWPOLYLINE
  5
468B
330
1F
100
AcDbEntity
  8
Kontruktion
100
AcDbPolyline
 90
        4
 70
     0
 43
0.0
 10
75.35241881423019
 20
-42.86062470509932
 10
75.35241881423019
 20
-44.06062466019935
 10
78.00241896913019
 20
-44.06062466019935
 10
78.00241896913019
 20
-42.86062470509932
  0
LWPOLYLINE
  5
468C
330
1F
100
AcDbEntity
  8
Kontruktion
100
AcDbPolyline
 90
        4
 70
     0
 43
0.0
 10
219.1024232845302
 20
-42.86062470509932
 10
219.1024232845302
 20
-44.06062466019935
 10
221.7524234395302
 20
-44.06062466019935
 10
221.7524234395302
 20
-42.86062470509932
  0
LWPOLYLINE
  5
468D
330
1F
100
AcDbEntity
  8
Kontruktion
100
AcDbPolyline
 90
        4
 70
     0
 43
0.0
 10
190.5024197142302
 20
-42.86062470509932
 10
190.5024197142302
 20
-44.06062466019935
 10
187.8524195592301
 20
-44.06062466019935
 10
187.8524195592301
 20
-42.86062470509932
  0
LWPOLYLINE
  5
468E
330
1F
100
AcDbEntity
  8
Kontruktion
100
AcDbPolyline
 90
        4
 70
     0
 43
0.0
 10
203.0024189691302
 20
-42.86062470509932
 10
203.0024189691302
 20
-44.06062466019935
 10
200.3524188142302
 20
-44.06062466019935
 10
200.3524188142302
 20
-42.86062470509932
  0
LWPOLYLINE
  5
468F
330
1F
100
AcDbEntity
  8
Kontruktion
100
AcDbPolyline
 90
        4
 70
     0
 43
0.0
 10
50.35242030433017
 20
-42.86062470509932
 10
50.35242030433017
 20
-44.06062466019935
 10
53.00242045923017
 20
-44.06062466019935
 10
53.00242045923017
 20
-42.86062470509932
  0
LWPOLYLINE
  5
4690
330
1F
100
AcDbEntity
  8
Kontruktion
100
AcDbPolyline
 90
        4
 70
     0
 43
0.0
 10
196.7524212043302
 20
-42.86062470509932
 10
196.7524212043302
 20
-44.06062466019935
 10
194.1024210493302
 20
-44.06062466019935
 10
194.1024210493302
 20
-42.86062470509932
  0
LWPOLYLINE
  5
4691
330
1F
100
AcDbEntity
  8
Kontruktion
100
AcDbPolyline
 90
        4
 70
     0
 43
0.0
 10
165.5024212043302
 20
-42.86062470509932
 10
165.5024212043302
 20
-44.06062466019935
 10
162.8524210493302
 20
-44.06062466019935
 10
162.8524210493302
 20
-42.86062470509932
  0
LWPOLYLINE
  5
4692
330
1F
100
AcDbEntity
  8
Kontruktion
100
AcDbPolyline
 90
        4
 70
     0
 43
0.0
 10
44.10241881423019
 20
-42.86062470509932
 10
44.10241881423019
 20
-44.06062466019935
 10
46.75241896913019
 20
-44.06062466019935
 10
46.75241896913019
 20
-42.86062470509932
  0
LWPOLYLINE
  5
4693
330
1F
100
AcDbEntity
  8
Kontruktion
100
AcDbPolyline
 90
        5
 70
     0
 43
0.0
 10
70.80242374943018
 20
-41.26062476009934
 10
70.80242374943018
 20
-39.21062474999934
 10
73.55241814663017
 20
-39.21062474999934
 10
76.30241999433017
 20
-39.21062474999934
 10
76.30241999433017
 20
-41.26062476009934
  0
LWPOLYLINE
  5
4694
330
1F
100
AcDbEntity
  8
Kontruktion
100
AcDbPolyline
 90
        5
 70
     0
 43
0.0
 10
120.8024207692302
 20
-41.26062476009934
 10
120.8024207692302
 20
-39.21062474999934
 10
123.5524207543301
 20
-39.21062474999934
 10
126.3024207394302
 20
-39.21062474999934
 10
126.3024207394302
 20
-41.26062476009934
  0
LWPOLYLINE
  5
4695
330
1F
100
AcDbEntity
  8
Kontruktion
100
AcDbPolyline
 90
        5
 70
     0
 43
0.0
 10
170.8024196516302
 20
-41.26062476009934
 10
170.8024196516302
 20
-39.21062474999934
 10
173.5524196367301
 20
-39.21062474999934
 10
176.3024214844302
 20
-39.21062474999934
 10
176.3024214844302
 20
-41.26062476009934
  0
LWPOLYLINE
  5
47DA
102
{ACAD_REACTORS
330
47DE
102
}
330
1F
100
AcDbEntity
  8
Kontruktion
100
AcDbPolyline
 90
       10
 70
     0
 43
0.0
 10
52.07378009363018
 20
-41.26062476009934
 10
52.07378009363018
 20
-40.61062470009935
 10
52.07378009363018
 20
-40.11062461809934
 10
52.07378009363018
 20
-39.11062468699933
 10
52.07378009363018
 20
-38.61062460509933
 10
52.72377619553018
 20
-38.61062460509933
 10
52.72377619553018
 20
-39.11062468699933
 10
52.72377619553018
 20
-40.11062461809934
 10
52.72377619553018
 20
-40.61062470009935
 10
52.72377619553018
 20
-41.26062476009934
  0
LWPOLYLINE
  5
47DB
102
{ACAD_REACTORS
330
47DE
102
}
330
1F
100
AcDbEntity
  8
Kontruktion
100
AcDbPolyline
 90
       10
 70
     0
 43
0.0
 10
49.53378031063016
 20
-41.26062476009934
 10
49.53378031063016
 20
-40.61062470009935
 10
49.53378031063016
 20
-40.11062461809934
 10
49.53378031063016
 20
-39.11062468699933
 10
49.53378031063016
 20
-38.61062460509933
 10
50.18377641253016
 20
-38.61062460509933
 10
50.18377641253016
 20
-39.11062468699933
 10
50.18377641253016
 20
-40.11062461809934
 10
50.18377641253016
 20
-40.61062470009935
 10
50.18377641253016
 20
-41.26062476009934
  0
LWPOLYLINE
  5
47DC
102
{ACAD_REACTORS
330
47DE
102
}
330
1F
100
AcDbEntity
  8
Kontruktion
100
AcDbPolyline
 90
       10
 70
     0
 43
0.0
 10
46.99378052763018
 20
-41.26062476009934
 10
46.99378052763018
 20
-40.61062470009935
 10
46.99378052763018
 20
-40.11062461809934
 10
46.99378052763018
 20
-39.11062468699933
 10
46.99378052763018
 20
-38.61062460509933
 10
47.64377662943016
 20
-38.61062460509933
 10
47.64377662943016
 20
-39.11062468699933
 10
47.64377662943016
 20
-40.11062461809934
 10
47.64377662943016
 20
-40.61062470009935
 10
47.64377662943016
 20
-41.26062476009934
  0
LWPOLYLINE
  5
47DD
102
{ACAD_REACTORS
330
47DE
102
}
330
1F
100
AcDbEntity
  8
Kontruktion
100
AcDbPolyline
 90
       10
 70
     0
 43
0.0
 10
45.10377684643017
 20
-41.26062476009934
 10
45.10377684643017
 20
-40.61062470009935
 10
45.10377684643017
 20
-40.11062461809934
 10
45.10377684643017
 20
-39.11062468699933
 10
45.10377684643017
 20
-38.61062460509933
 10
44.45378074453017
 20
-38.61062460509933
 10
44.45378074453017
 20
-39.11062468699933
 10
44.45378074453017
 20
-40.11062461809934
 10
44.45378074453017
 20
-40.61062470009935
 10
44.45378074453017
 20
-41.26062476009934
  0
LWPOLYLINE
  5
47DF
102
{ACAD_REACTORS
330
47E3
102
}
330
1F
100
AcDbEntity
  8
Kontruktion
100
AcDbPolyline
 90
       10
 70
     0
 43
0.0
 10
202.7556594651302
 20
-41.26062476009934
 10
202.7556594651302
 20
-40.61062470009935
 10
202.7556594651302
 20
-40.11062461809934
 10
202.7556594651302
 20
-39.11062468699933
 10
202.7556594651302
 20
-38.61062460509933
 10
202.1056596379302
 20
-38.61062460509933
 10
202.1056596379302
 20
-39.11062468699933
 10
202.1056596379302
 20
-40.11062461809934
 10
202.1056596379302
 20
-40.61062470009935
 10
202.1056596379302
 20
-41.26062476009934
  0
LWPOLYLINE
  5
47E0
102
{ACAD_REACTORS
330
47E3
102
}
330
1F
100
AcDbEntity
  8
Kontruktion
100
AcDbPolyline
 90
       10
 70
     0
 43
0.0
 10
200.2156596820301
 20
-41.26062476009934
 10
200.2156596820301
 20
-40.61062470009935
 10
200.2156596820301
 20
-40.11062461809934
 10
200.2156596820301
 20
-39.11062468699933
 10
200.2156596820301
 20
-38.61062460509933
 10
199.5656598549301
 20
-38.61062460509933
 10
199.5656598549301
 20
-39.11062468699933
 10
199.5656598549301
 20
-40.11062461809934
 10
199.5656598549301
 20
-40.61062470009935
 10
199.5656598549301
 20
-41.26062476009934
  0
LWPOLYLINE
  5
47E1
102
{ACAD_REACTORS
330
47E3
102
}
330
1F
100
AcDbEntity
  8
Kontruktion
100
AcDbPolyline
 90
       10
 70
     0
 43
0.0
 10
197.6756598990301
 20
-41.26062476009934
 10
197.6756598990301
 20
-40.61062470009935
 10
197.6756598990301
 20
-40.11062461809934
 10
197.6756598990301
 20
-39.11062468699933
 10
197.6756598990301
 20
-38.61062460509933
 10
197.0256600718302
 20
-38.61062460509933
 10
197.0256600718302
 20
-39.11062468699933
 10
197.0256600718302
 20
-40.11062461809934
 10
197.0256600718302
 20
-40.61062470009935
 10
197.0256600718302
 20
-41.26062476009934
  0
LWPOLYLINE
  5
47E2
102
{ACAD_REACTORS
330
47E3
102
}
330
1F
100
AcDbEntity
  8
Kontruktion
100
AcDbPolyline
 90
       10
 70
     0
 43
0.0
 10
194.4856602888301
 20
-41.26062476009934
 10
194.4856602888301
 20
-40.61062470009935
 10
194.4856602888301
 20
-40.11062461809934
 10
194.4856602888301
 20
-39.11062468699933
 10
194.4856602888301
 20
-38.61062460509933
 10
195.1356601159302
 20
-38.61062460509933
 10
195.1356601159302
 20
-39.11062468699933
 10
195.1356601159302
 20
-40.11062461809934
 10
195.1356601159302
 20
-40.61062470009935
 10
195.1356601159302
 20
-41.26062476009934
  0
LWPOLYLINE
  5
47ED
330
1F
100
AcDbEntity
  8
Mittellienie
  6
MITTE2
100
AcDbPolyline
 90
        4
 70
     0
 43
0.0
 10
45.55242174253012
 20
14.62392854438156
 10
46.55242174253013
 20
14.62392854438156
 10
50.5524188225302
 20
14.62392854438156
 10
51.5524188225302
 20
14.62392854438156
  0
LWPOLYLINE
  5
47EE
330
1F
100
AcDbEntity
  8
Mittellienie
  6
MITTE2
100
AcDbPolyline
 90
        4
 70
     0
 43
0.0
 10
48.55242028253016
 20
17.5938755780816
 10
48.55242028253016
 20
16.5938755780816
 10
48.55242028253016
 20
12.59387849808153
 10
48.55242028253016
 20
11.59387849808153
  0
LWPOLYLINE
  5
47F7
330
1F
100
AcDbEntity
  8
Mittellienie
  6
MITTE2
100
AcDbPolyline
 90
        4
 70
     0
 43
0.0
 10
120.5524417991081
 20
14.62392854438156
 10
121.5524417991081
 20
14.62392854438156
 10
125.5524388791081
 20
14.62392854438156
 10
126.5524388791081
 20
14.62392854438156
  0
LWPOLYLINE
  5
47F8
330
1F
100
AcDbEntity
  8
Mittellienie
  6
MITTE2
100
AcDbPolyline
 90
        4
 70
     0
 43
0.0
 10
123.5524202825301
 20
17.65760195888159
 10
123.5524202825301
 20
16.65760195888159
 10
123.5524202825301
 20
12.65760487888152
 10
123.5524202825301
 20
11.65760487888152
  0
LWPOLYLINE
  5
4801
330
1F
100
AcDbEntity
  8
Mittellienie
  6
MITTE2
100
AcDbPolyline
 90
        4
 70
     0
 43
0.0
 10
195.5524217425301
 20
14.62392854438156
 10
196.5524217425301
 20
14.62392854438156
 10
200.5524188225302
 20
14.62392854438156
 10
201.5524188225302
 20
14.62392854438156
  0
LWPOLYLINE
  5
4802
330
1F
100
AcDbEntity
  8
Mittellienie
  6
MITTE2
100
AcDbPolyline
 90
        4
 70
     0
 43
0.0
 10
198.5524202825302
 20
17.6239270843816
 10
198.5524202825302
 20
16.6239270843816
 10
198.5524202825302
 20
12.62393000438153
 10
198.5524202825302
 20
11.62393000438153
  0
LWPOLYLINE
  5
480B
330
1F
100
AcDbEntity
  8
Mittellienie
  6
MITTE2
100
AcDbPolyline
 90
        4
 70
     0
 43
0.0
 10
170.5524217425301
 20
52.12762040738156
 10
171.5524217425301
 20
52.12762040738156
 10
175.5524188225302
 20
52.12762040738156
 10
176.5524188225302
 20
52.12762040738156
  0
LWPOLYLINE
  5
480C
330
1F
100
AcDbEntity
  8
Mittellienie
  6
MITTE2
100
AcDbPolyline
 90
        4
 70
     0
 43
0.0
 10
173.5524202825302
 20
55.1776189473816
 10
173.5524202825302
 20
54.17761894738159
 10
173.5524202825302
 20
50.17762186738153
 10
173.5524202825302
 20
49.17762186738152
  0
LWPOLYLINE
  5
4816
330
1F
100
AcDbEntity
  8
Mittellienie
  6
MITTE2
100
AcDbPolyline
 90
        4
 70
     0
 43
0.0
 10
123.5524202825301
 20
48.9076017045816
 10
123.5524202825301
 20
47.9076017045816
 10
123.5524202825301
 20
43.90760462458152
 10
123.5524202825301
 20
42.90760462458153
  0
LWPOLYLINE
  5
481F
330
1F
100
AcDbEntity
  8
Mittellienie
  6
MITTE2
100
AcDbPolyline
 90
        4
 70
     0
 43
0.0
 10
70.55242174253013
 20
52.12762040738156
 10
71.55242174253013
 20
52.12762040738156
 10
75.5524188225302
 20
52.12762040738156
 10
76.5524188225302
 20
52.12762040738156
  0
LWPOLYLINE
  5
4820
330
1F
100
AcDbEntity
  8
Mittellienie
  6
MITTE2
100
AcDbPolyline
 90
        4
 70
     0
 43
0.0
 10
73.55242028253016
 20
55.11760165308161
 10
73.55242028253016
 20
54.11760165308161
 10
73.55242028253016
 20
50.11760457308154
 10
73.55242028253016
 20
49.11760457308155
  0
LINE
  5
4821
330
1F
100
AcDbEntity
  8
Mittellienie
100
AcDbLine
 10
21.55242112683018
 20
33.37757460330975
 30
0.0
 11
225.5524166565302
 21
33.37757460330975
 31
0.0
  0
LINE
  5
4822
330
1F
100
AcDbEntity
  8
Mittellienie
100
AcDbLine
 10
223.5524166565302
 20
33.37757460330975
 30
0.0
 11
223.5524166565302
 21
35.37757460330976
 31
0.0
  0
LINE
  5
4823
330
1F
100
AcDbEntity
  8
Mittellienie
100
AcDbLine
 10
123.5524197453865
 20
60.33758564748137
 30
0.0
 11
123.5523975481088
 21
8.33545054584434
 31
0.0
  0
LINE
  5
4824
330
1F
100
AcDbEntity
  8
Mittellienie
100
AcDbLine
 10
123.5523975481088
 20
8.375450545844342
 30
0.0
 11
123.5523975481088
 21
6.375450545844342
 31
0.0
  0
DIMENSION
  5
4825
330
1F
100
AcDbEntity
  8
BEM
100
AcDbDimension
280
     0
  2
*D1
 10
173.5524202825302
 20
65.373819050126
 30
0.0
 11
123.5524202825301
 21
67.15025151943023
 31
0.0
 70
    32
 71
     5
 42
100.0
 73
     0
 74
     0
 75
     0
  3
ISO-25
100
AcDbAlignedDimension
 13
73.55242028253016
 23
50.17762040738156
 33
0.0
 14
173.5524202825302
 24
50.18763770168154
 34
0.0
100
AcDbRotatedDimension
1001
ACAD
1000
DSTYLE
1002
{
1070
    42
1040
1.0
1070
    43
1040
4.0
1070
    44
1040
1.0
1070
    78
1070
     0
1070
   179
1070
     2
1070
   271
1070
     0
1070
   284
1070
     0
1002
}
  0
DIMENSION
  5
4842
330
1F
100
AcDbEntity
  8
BEM
100
AcDbDimension
280
     0
  2
*D2
 10
126.6774196367302
 20
1.375643975852763
 30
0.0
 11
132.9405506053523
 21
3.378031424693145
 31
0.0
 70
    32
 71
     5
 42
6.249999627500002
 73
     0
 74
     0
 75
     0
  3
ISO-25
100
AcDbAlignedDimension
 13
120.4274200092301
 23
12.52758497548156
 33
0.0
 14
126.6774196367302
 24
12.52758497548156
 34
0.0
100
AcDbRotatedDimension
1001
ACAD
1000
DSTYLE
1002
{
1070
   279
1070
     0
1070
    42
1040
1.0
1070
    43
1040
4.0
1070
    44
1040
1.0
1070
    78
1070
     0
1070
   179
1070
     2
1070
   284
1070
     0
1002
}
  0
DIMENSION
  5
48D6
330
1F
100
AcDbEntity
  8
BEM
100
AcDbDimension
280
     0
  2
*D3
 10
198.5524202825302
 20
-4.144356024147236
 30
0.0
 11
123.5524202825301
 21
-4.144356024147236
 31
0.0
 70
   160
 71
     5
 42
150.0
 73
     0
 74
     0
 75
     0
  3
ISO-25
100
AcDbAlignedDimension
 13
48.55242028253016
 23
14.64257703808156
 33
0.0
 14
198.5524202825302
 24
14.67262854438156
 34
0.0
100
AcDbRotatedDimension
1001
ACAD
1000
DSTYLE
1002
{
1070
    42
1040
1.0
1070
    43
1040
4.0
1070
    44
1040
1.0
1070
    78
1070
     0
1070
   179
1070
     2
1070
   271
1070
     0
1070
   284
1070
     0
1002
}
  0
DIMENSION
  5
48F3
330
1F
100
AcDbEntity
  8
BEM
100
AcDbDimension
280
     0
  2
*D4
 10
238.5052546353202
 20
33.37757460330975
 30
0.0
 11
238.5052546353202
 21
42.77259750534567
 31
0.0
 70
   160
 71
     5
 42
18.75004580407179
 73
     0
 74
     0
 75
     0
  3
ISO-25
100
AcDbAlignedDimension
 13
173.5524202825302
 23
52.12762040738156
 33
0.0
 14
223.5524166565302
 24
33.37757460330975
 34
0.0
 50
90.0
100
AcDbRotatedDimension
1001
ACAD
1000
DSTYLE
1002
{
1070
    42
1040
1.0
1070
    43
1040
4.0
1070
    44
1040
1.0
1070
    78
1070
     0
1070
   179
1070
     2
1070
   284
1070
     0
1002
}
  0
DIMENSION
  5
4900
330
1F
100
AcDbEntity
  8
BEM
100
AcDbDimension
280
     0
  2
*D5
 10
238.5052546353202
 20
33.37757460330975
 30
0.0
 11
238.5052546353202
 21
23.13481728721629
 31
0.0
 70
   160
 71
     5
 42
18.75364605892819
 73
     0
 74
     0
 75
     0
  3
ISO-25
100
AcDbAlignedDimension
 13
198.5524202825302
 23
14.62392854438156
 33
0.0
 14
238.5052546353202
 24
33.37757460330975
 34
0.0
 50
90.0
100
AcDbRotatedDimension
1001
ACAD
1000
DSTYLE
1002
{
1070
    42
1040
1.0
1070
    43
1040
4.0
1070
    44
1040
1.0
1070
    78
1070
     0
1070
   179
1070
     2
1070
   284
1070
     0
1002
}
  0
DIMENSION
  5
490C
330
1F
100
AcDbEntity
  8
BEM
100
AcDbDimension
280
     0
  2
*D6
 10
244.0052546353202
 20
8.373451425087692
 30
0.0
 11
244.0052546353202
 21
33.37551853628467
 31
0.0
 70
   160
 71
     5
 42
50.00413422239386
 73
     0
 74
     0
 75
     0
  3
ISO-25
100
AcDbAlignedDimension
 13
214.6826400709222
 23
58.37758564748156
 33
0.0
 14
217.2162328424099
 24
8.373451425087701
 34
0.0
 50
90.0
100
AcDbRotatedDimension
1001
ACAD
1000
DSTYLE
1002
{
1070
    42
1040
1.0
1070
    43
1040
4.0
1070
    44
1040
1.0
1070
    78
1070
     0
1070
   179
1070
     2
1070
   271
1070
     0
1070
   284
1070
     0
1002
}
  0
DIMENSION
  5
4957
330
1F
100
AcDbEntity
  8
BEM
100
AcDbDimension
280
     0
  2
*D7
 10
223.5524166565302
 20
70.37380175582601
 30
0.0
 11
123.5524188916802
 21
70.37380175582601
 31
0.0
 70
   160
 71
     5
 42
199.9999955296999
 73
     0
 74
     0
 75
     0
  3
ISO-25
100
AcDbAlignedDimension
 13
23.55242112683018
 23
53.46725773282486
 33
0.0
 14
223.5524166565302
 24
53.46725773282486
 34
0.0
100
AcDbRotatedDimension
1001
ACAD
1000
DSTYLE
1002
{
1070
    42
1040
1.0
1070
    43
1040
4.0
1070
    44
1040
1.0
1070
    78
1070
     0
1070
   179
1070
     2
1070
   271
1070
     0
1070
   284
1070
     0
1002
}
  0
DIMENSION
  5
4A91
330
1F
100
AcDbEntity
  8
BEM
100
AcDbDimension
280
     0
  2
*D8
 10
19.48579735253872
 20
-35.26062474889935
 30
0.0
 11
17.7093648832345
 21
-38.26062475449934
 31
0.0
 70
    32
 71
     5
 42
6.0000000112
 73
     0
 74
     0
 75
     0
  3
ISO-25
100
AcDbAlignedDimension
 13
23.54262361333019
 23
-41.26062476009934
 33
0.0
 14
43.52562466673018
 24
-35.26062474889935
 34
0.0
 50
90.0
100
AcDbRotatedDimension
1001
ACAD
1000
DSTYLE
1002
{
1070
    42
1040
1.0
1070
    43
1040
4.0
1070
    44
1040
1.0
1070
    78
1070
     0
1070
   179
1070
     2
1070
   271
1070
     0
1070
   284
1070
     0
1002
}
  0
DIMENSION
  5
4A9F
330
1F
100
AcDbEntity
  8
BEM
100
AcDbDimension
280
     0
  2
*D9
 10
19.49908216661822
 20
-42.86062470509932
 30
0.0
 11
17.49669471777785
 21
-50.51785526444447
 31
0.0
 70
    32
 71
     5
 42
1.599999944999979
 73
     0
 74
     0
 75
     0
  3
ISO-25
100
AcDbAlignedDimension
 13
23.54262361333019
 23
-41.26062476009934
 33
0.0
 14
23.54262361333019
 24
-42.86062470509932
 34
0.0
 50
90.0
100
AcDbRotatedDimension
1001
ACAD
1000
DSTYLE
1002
{
1070
    42
1040
1.0
1070
    43
1040
4.0
1070
    44
1040
1.0
1070
    78
1070
     0
1070
   179
1070
     2
1070
   271
1070
     1
1070
   284
1070
     0
1002
}
  0
LWPOLYLINE
  5
4ECE
330
1F
100
AcDbEntity
  8
Mittellienie
  6
MITTE2
100
AcDbPolyline
 90
        4
 70
     0
 43
0.0
 10
120.5524217425301
 20
45.87760316458156
 10
121.5524217425301
 20
45.87760316458156
 10
125.5524188225302
 20
45.87760316458156
 10
126.5524188225302
 20
45.87760316458156
  0
LWPOLYLINE
  5
4ECF
330
1F
100
AcDbEntity
  8
Mittellienie
  6
MITTE2
100
AcDbPolyline
 90
        4
 70
     0
 43
0.0
 10
123.5524202825301
 20
48.8776017045816
 10
123.5524202825301
 20
47.8776017045816
 10
123.5524202825301
 20
43.87760462458152
 10
123.5524202825301
 20
42.87760462458153
  0
DIMENSION
  5
4EDE
330
1F
100
AcDbEntity
  8
BEM
100
AcDbDimension
280
     0
  2
*D10
 10
229.8097607315726
 20
33.37546158978839
 30
0.0
 11
227.8073732827322
 21
39.626532377185
 31
0.0
 70
    32
 71
     5
 42
12.50214157479315
 73
     0
 74
     0
 75
     0
  3
ISO-25
100
AcDbAlignedDimension
 13
123.5524202825301
 23
45.87760316458156
 33
0.0
 14
223.5524166565302
 24
33.37546158978839
 34
0.0
 50
90.0
100
AcDbRotatedDimension
1001
ACAD
1000
DSTYLE
1002
{
1070
    42
1040
1.0
1070
    43
1040
4.0
1070
    44
1040
1.0
1070
    78
1070
     0
1070
   179
1070
     2
1070
   284
1070
     0
1002
}
  0
LINE
  5
5039
330
1F
100
AcDbEntity
  8
FORMAT
  6
Continuous
 62
     7
370
     0
100
AcDbLine
 10
301.9851910609784
 20
-119.8897125028435
 30
0.0
 11
301.9851910609784
 21
-69.75957309284343
 31
0.0
  0
LINE
  5
503A
330
1F
100
AcDbEntity
  8
FORMAT
  6
Continuous
 62
     7
370
     0
100
AcDbLine
 10
297.4485795216694
 20
135.9781621773257
 30
0.0
 11
297.4485795216694
 21
-69.75955929267377
 31
0.0
  0
LINE
  5
503B
330
1F
100
AcDbEntity
  8
legende
  6
Continuous
370
     0
100
AcDbLine
 10
179.1323245249784
 20
-119.8897125028435
 30
0.0
 11
179.1323245249784
 21
-85.17762818981385
 31
0.0
  0
LINE
  5
503C
330
1F
100
AcDbEntity
  8
FORMAT
  6
Continuous
 62
     7
370
     0
100
AcDbLine
 10
136.3788063268227
 20
-119.889689567252
 30
0.0
 11
301.9851962836226
 21
-119.889689567252
 31
0.0
  0
LINE
  5
503D
330
1F
100
AcDbEntity
  8
legende
  6
Continuous
370
     0
100
AcDbLine
 10
219.2364360529789
 20
-89.04039594284325
 30
0.0
 11
301.9851910609784
 21
-89.04039594284325
 31
0.0
  0
LINE
  5
503E
330
1F
100
AcDbEntity
  8
legende
  6
Continuous
370
     0
100
AcDbLine
 10
263.9295366981908
 20
-85.17989649792809
 30
0.0
 11
263.9295366981908
 21
-96.7364718257237
 31
0.0
  0
LINE
  5
503F
330
1F
100
AcDbEntity
  8
legende
  6
Continuous
370
     0
100
AcDbLine
 10
249.8932223420195
 20
-115.3375044493988
 30
0.0
 11
249.8932223420195
 21
-119.8897125028435
 31
0.0
  0
LINE
  5
5040
330
1F
100
AcDbEntity
  8
legende
  6
Continuous
370
     0
100
AcDbLine
 10
202.9383708438043
 20
-85.24093967534339
 30
0.0
 11
202.9383708438043
 21
-100.7223062578433
 31
0.0
  0
LINE
  5
5041
330
1F
100
AcDbEntity
  8
legende
  6
Continuous
370
     0
100
AcDbLine
 10
187.6784429724464
 20
-85.18423137284356
 30
0.0
 11
187.6784429724464
 21
-100.7223062578433
 31
0.0
  0
LINE
  5
5042
330
1F
100
AcDbEntity
  8
legende
  6
Continuous
 62
   179
370
    15
100
AcDbLine
 10
271.3855692714358
 20
-92.67677674333265
 30
0.0
 11
271.3855692714358
 21
-94.49144242333217
 31
0.0
  0
LINE
  5
5043
330
1F
100
AcDbEntity
  8
legende
  6
Continuous
 62
   179
370
    15
100
AcDbLine
 10
271.3855692714358
 20
-94.49144242333217
 30
0.0
 11
278.8759744104207
 21
-95.85244168333213
 31
0.0
  0
LINE
  5
5044
330
1F
100
AcDbEntity
  8
legende
  6
Continuous
 62
   179
370
    15
100
AcDbLine
 10
278.8759744104207
 20
-95.85244168333213
 30
0.0
 11
278.8759744104207
 21
-91.31577748333222
 31
0.0
  0
LINE
  5
5045
330
1F
100
AcDbEntity
  8
legende
  6
Continuous
 62
   179
370
    15
100
AcDbLine
 10
278.8759744104207
 20
-91.31577748333222
 30
0.0
 11
271.3855692714358
 21
-92.67677674333265
 31
0.0
  0
LINE
  5
5046
330
1F
100
AcDbEntity
  8
legende
  6
HIDDEN
 62
   179
370
    15
100
AcDbLine
 10
269.5455322713103
 20
-93.58410958333218
 30
0.0
 11
280.5847895416189
 21
-93.58410958333218
 31
0.0
  0
LINE
  5
5047
330
1F
100
AcDbEntity
  8
legende
  6
Continuous
 62
   179
370
    15
100
AcDbLine
 10
285.0575920563153
 20
-93.58410958333218
 30
0.0
 11
291.4337147901085
 21
-93.58410958333218
 31
0.0
  0
LINE
  5
5048
330
1F
100
AcDbEntity
  8
legende
  6
Continuous
 62
   179
370
    15
100
AcDbLine
 10
288.2932364286892
 20
-90.28903797472697
 30
0.0
 11
288.2932364286892
 21
-96.47482853281793
 31
0.0
  0
LINE
  5
5049
330
1F
100
AcDbEntity
  8
FORMAT
  6
Continuous
 62
   179
370
     0
100
AcDbLine
 10
176.3195927209788
 20
-119.8897125028435
 30
0.0
 11
173.700346848437
 21
-124.4263767028434
 31
0.0
  0
LINE
  5
504A
330
1F
100
AcDbEntity
  8
FORMAT
  6
Continuous
 62
   179
370
     0
100
AcDbLine
 10
173.700346848437
 20
-124.4263767028434
 30
0.0
 11
178.9388385934301
 21
-124.4263767028434
 31
0.0
  0
LINE
  5
504B
330
1F
100
AcDbEntity
  8
FORMAT
  6
Continuous
 62
   179
370
     0
100
AcDbLine
 10
178.9388385934301
 20
-124.4263767028434
 30
0.0
 11
176.3195927209788
 21
-119.8897125028435
 31
0.0
  0
LINE
  5
504C
330
1F
100
AcDbEntity
  8
FORMAT
  6
Continuous
 62
     7
370
     0
100
AcDbLine
 10
301.9852418975672
 20
140.5148252803605
 30
0.0
 11
-60.7210608924322
 21
140.5148252803605
 31
0.0
  0
LINE
  5
504D
330
1F
100
AcDbEntity
  8
FORMAT
  6
Continuous
 62
     7
370
     0
100
AcDbLine
 10
297.5619960810671
 20
136.0915787549019
 30
0.0
 11
-56.2978115189328
 21
136.0915787549019
 31
0.0
  0
LINE
  5
504E
330
1F
100
AcDbEntity
  8
FORMAT
  6
Continuous
 62
     7
370
     0
100
AcDbLine
 10
-60.94789410243243
 20
140.5148252803605
 30
0.0
 11
-60.94789410243243
 21
-119.8896997996395
 31
0.0
  0
LINE
  5
504F
330
1F
100
AcDbEntity
  8
FORMAT
  6
Continuous
 62
     7
370
     0
100
AcDbLine
 10
-56.41122807833039
 20
135.9781621773257
 30
0.0
 11
-56.41122807833039
 21
-115.3530345026739
 31
0.0
  0
LINE
  5
5050
330
1F
100
AcDbEntity
  8
FORMAT
  6
Continuous
 62
     7
370
     0
100
AcDbLine
 10
-56.41122990243252
 20
-80.42072125963944
 30
0.0
 11
-60.94789410243243
 21
-80.42072125963944
 31
0.0
  0
LINE
  5
5051
330
1F
100
AcDbEntity
  8
FORMAT
  6
Continuous
 62
     7
370
     0
100
AcDbLine
 10
-60.94789410243243
 20
-35.05407925963948
 30
0.0
 11
-56.41122990243252
 21
-35.05407925963948
 31
0.0
  0
LINE
  5
5052
330
1F
100
AcDbEntity
  8
FORMAT
  6
Continuous
 62
     7
370
     0
100
AcDbLine
 10
-60.94789410243243
 20
55.67920474036043
 30
0.0
 11
-56.41122990243252
 21
55.67920474036043
 31
0.0
  0
LINE
  5
5053
330
1F
100
AcDbEntity
  8
FORMAT
  6
Continuous
 62
     7
370
     0
100
AcDbLine
 10
-60.94789410243243
 20
10.31256274036048
 30
0.0
 11
-51.87456570243262
 21
10.31256274036048
 31
0.0
  0
LINE
  5
5054
330
1F
100
AcDbEntity
  8
FORMAT
  6
Continuous
370
     0
100
AcDbLine
 10
-60.7210608924322
 20
-119.8896997996395
 30
0.0
 11
301.9852418975672
 21
-119.8896997996395
 31
0.0
  0
LINE
  5
5055
330
1F
100
AcDbEntity
  8
FORMAT
  6
Continuous
 62
     7
370
     0
100
AcDbLine
 10
-56.2978115189328
 20
-115.466451135098
 30
0.0
 11
179.1323245249784
 21
-115.46645219086
 31
0.0
  0
LINE
  5
5056
330
1F
100
AcDbEntity
  8
FORMAT
  6
Continuous
 62
     7
370
     0
100
AcDbLine
 10
-12.0653373474322
 20
-119.8896997996395
 30
0.0
 11
-12.0653373474322
 21
-115.4664522046397
 31
0.0
  0
LINE
  5
5057
330
1F
100
AcDbEntity
  8
FORMAT
  6
Continuous
 62
     7
370
     0
100
AcDbLine
 10
32.16713860256755
 20
-115.4664522046397
 30
0.0
 11
32.16713860256755
 21
-119.8896997996395
 31
0.0
  0
LINE
  5
5058
330
1F
100
AcDbEntity
  8
FORMAT
  6
Continuous
 62
     7
370
     0
100
AcDbLine
 10
76.39961455256775
 20
-119.8896997996395
 30
0.0
 11
76.39961455256775
 21
-115.4664522046397
 31
0.0
  0
LINE
  5
5059
330
1F
100
AcDbEntity
  8
FORMAT
  6
Continuous
 62
     7
370
     0
100
AcDbLine
 10
-56.41122990243252
 20
101.0458467403608
 30
0.0
 11
-60.94789410243243
 21
101.0458467403608
 31
0.0
  0
LINE
  5
505A
330
1F
100
AcDbEntity
  8
FORMAT
  6
Continuous
 62
     7
370
     0
100
AcDbLine
 10
-12.0653373474322
 20
136.0915776853607
 30
0.0
 11
-12.0653373474322
 21
140.5148252803605
 31
0.0
  0
LINE
  5
505B
330
1F
100
AcDbEntity
  8
FORMAT
  6
Continuous
 62
     7
370
     0
100
AcDbLine
 10
32.16713860256755
 20
140.5148252803605
 30
0.0
 11
32.16713860256755
 21
136.0915776853607
 31
0.0
  0
LINE
  5
505C
330
1F
100
AcDbEntity
  8
FORMAT
  6
Continuous
 62
     7
370
     0
100
AcDbLine
 10
76.39961455256775
 20
136.0915776853607
 30
0.0
 11
76.39961455256775
 21
140.5148252803605
 31
0.0
  0
LINE
  5
505D
330
1F
100
AcDbEntity
  8
FORMAT
  6
Continuous
 62
     7
370
     0
100
AcDbLine
 10
164.8645664525677
 20
136.0915776853607
 30
0.0
 11
164.8645664525677
 21
140.5148252803605
 31
0.0
  0
LINE
  5
505E
330
1F
100
AcDbEntity
  8
FORMAT
  6
Continuous
370
     0
100
AcDbLine
 10
301.9852418975672
 20
-119.8896997996395
 30
0.0
 11
301.9852418975672
 21
140.5148252803605
 31
0.0
  0
LINE
  5
505F
330
1F
100
AcDbEntity
  8
FORMAT
  6
Continuous
 62
     7
370
     0
100
AcDbLine
 10
120.6320905025675
 20
-119.8896997996395
 30
0.0
 11
120.6320905025675
 21
-115.4664522046397
 31
0.0
  0
LINE
  5
5060
330
1F
100
AcDbEntity
  8
FORMAT
  6
Continuous
 62
     7
370
     0
100
AcDbLine
 10
297.4485776975673
 20
55.67920474036043
 30
0.0
 11
301.9852418975672
 21
55.67920474036043
 31
0.0
  0
LINE
  5
5061
330
1F
100
AcDbEntity
  8
FORMAT
  6
Continuous
 62
     7
370
     0
100
AcDbLine
 10
297.4485776975673
 20
-35.05407925963948
 30
0.0
 11
301.9852418975672
 21
-35.05407925963948
 31
0.0
  0
LINE
  5
5062
330
1F
100
AcDbEntity
  8
FORMAT
  6
Continuous
 62
     7
370
     0
100
AcDbLine
 10
301.9852418975672
 20
10.31256274036048
 30
0.0
 11
292.9119134975674
 21
10.31256274036048
 31
0.0
  0
LINE
  5
5063
330
1F
100
AcDbEntity
  8
FORMAT
  6
Continuous
 62
     7
370
     0
100
AcDbLine
 10
209.0970424025675
 20
140.5148252803605
 30
0.0
 11
209.0970424025675
 21
136.0915776853607
 31
0.0
  0
LINE
  5
5064
330
1F
100
AcDbEntity
  8
FORMAT
  6
Continuous
 62
     7
370
     0
100
AcDbLine
 10
253.3295183525672
 20
136.0915776853607
 30
0.0
 11
253.3295183525672
 21
140.5148252803605
 31
0.0
  0
LINE
  5
5065
330
1F
100
AcDbEntity
  8
FORMAT
  6
Continuous
 62
     7
370
     0
100
AcDbLine
 10
120.6320905025675
 20
140.5148252803605
 30
0.0
 11
120.6320905025675
 21
131.6683300903608
 31
0.0
  0
LINE
  5
5066
330
1F
100
AcDbEntity
  8
FORMAT
  6
Continuous
 62
     7
370
     0
100
AcDbLine
 10
301.9852418975672
 20
101.0458467403608
 30
0.0
 11
297.4485776975673
 21
101.0458467403608
 31
0.0
  0
LINE
  5
5067
330
1F
100
AcDbEntity
  8
FORMAT
  6
Continuous
 62
     7
370
     0
100
AcDbLine
 10
131.9555247550886
 20
-119.8897126496159
 30
0.0
 11
136.3787723500888
 21
-119.8897126496159
 31
0.0
  0
LINE
  5
5068
330
1F
100
AcDbEntity
  8
legende
  6
Continuous
370
     0
100
AcDbLine
 10
202.9383708438043
 20
-85.17762818981385
 30
0.0
 11
179.1323245249784
 21
-85.17762818981385
 31
0.0
  0
LINE
  5
5069
330
1F
100
AcDbEntity
  8
legende
  6
Continuous
370
     0
100
AcDbLine
 10
219.2364360529789
 20
-85.17795006993049
 30
0.0
 11
202.9383708438043
 21
-85.17795006993049
 31
0.0
  0
LINE
  5
506A
330
1F
100
AcDbEntity
  8
legende
  6
Continuous
370
     0
100
AcDbLine
 10
248.1991804480101
 20
-89.05234179495995
 30
0.0
 11
248.1991804480101
 21
-85.17795006993049
 31
0.0
  0
CIRCLE
  5
506B
330
1F
100
AcDbEntity
  8
legende
  6
Continuous
 62
   179
370
    15
100
AcDbCircle
 10
288.2932364286892
 20
-93.58410958333218
 30
0.0
 40
0.9073328399999088
  0
CIRCLE
  5
506C
330
1F
100
AcDbEntity
  8
legende
  6
Continuous
 62
   179
370
    15
100
AcDbCircle
 10
288.2932364286892
 20
-93.58410958333218
 30
0.0
 40
2.268332099999899
  0
MTEXT
  5
506D
330
1F
100
AcDbEntity
  8
FORMAT
  6
Continuous
 62
     7
370
     0
100
AcDbMText
 10
-59.43567270240214
 20
-11.31097498966312
 30
0.0
 40
1.680456030719755
 41
0.0
 46
0.0
 71
     1
 72
     1
  1
D
  7
SLDTEXTSTYLE0
 73
     1
 44
1.0
  0
MTEXT
  5
506E
330
1F
100
AcDbEntity
  8
FORMAT
  6
Continuous
 62
     7
370
     0
100
AcDbMText
 10
-59.43567270240214
 20
-56.67761698966308
 30
0.0
 40
1.680456030719755
 41
0.0
 46
0.0
 71
     1
 72
     1
  1
E
  7
SLDTEXTSTYLE0
 73
     1
 44
1.0
  0
MTEXT
  5
506F
330
1F
100
AcDbEntity
  8
FORMAT
  6
Continuous
 62
     7
370
     0
100
AcDbMText
 10
-59.43567270240214
 20
-102.044258989663
 30
0.0
 40
1.680456030719755
 41
0.0
 46
0.0
 71
     1
 72
     1
  1
F
  7
SLDTEXTSTYLE0
 73
     1
 44
1.0
  0
MTEXT
  5
5070
330
1F
100
AcDbEntity
  8
FORMAT
  6
Continuous
 62
     7
370
     0
100
AcDbMText
 10
-59.43567270240214
 20
34.05566701033683
 30
0.0
 40
1.680456030719755
 41
0.0
 46
0.0
 71
     1
 72
     1
  1
C
  7
SLDTEXTSTYLE0
 73
     1
 44
1.0
  0
MTEXT
  5
5071
330
1F
100
AcDbEntity
  8
FORMAT
  6
Continuous
 62
     7
370
     0
100
AcDbMText
 10
-34.55017928871189
 20
-116.644783775314
 30
0.0
 40
1.638444629951761
 41
0.0
 46
0.0
 71
     1
 72
     1
  1
1
  7
SLDTEXTSTYLE0
 73
     1
 44
1.0
  0
MTEXT
  5
5072
330
1F
100
AcDbEntity
  8
FORMAT
  6
Continuous
 62
     7
370
     0
100
AcDbMText
 10
9.313692695097188
 20
-116.644783775314
 30
0.0
 40
1.638444629951761
 41
0.0
 46
0.0
 71
     1
 72
     1
  1
2
  7
SLDTEXTSTYLE0
 73
     1
 44
1.0
  0
MTEXT
  5
5073
330
1F
100
AcDbEntity
  8
FORMAT
  6
Continuous
 62
     7
370
     0
100
AcDbMText
 10
53.54616864509694
 20
-116.644783775314
 30
0.0
 40
1.638444629951761
 41
0.0
 46
0.0
 71
     1
 72
     1
  1
3
  7
SLDTEXTSTYLE0
 73
     1
 44
1.0
  0
MTEXT
  5
5074
330
1F
100
AcDbEntity
  8
FORMAT
  6
Continuous
 62
     7
370
     0
100
AcDbMText
 10
97.77864459509714
 20
-116.644783775314
 30
0.0
 40
1.638444629951761
 41
0.0
 46
0.0
 71
     1
 72
     1
  1
4
  7
SLDTEXTSTYLE0
 73
     1
 44
1.0
  0
MTEXT
  5
5075
330
1F
100
AcDbEntity
  8
FORMAT
  6
Continuous
 62
     7
370
     0
100
AcDbMText
 10
-59.43567270240214
 20
79.42230901033679
 30
0.0
 40
1.680456030719755
 41
0.0
 46
0.0
 71
     1
 72
     1
  1
B
  7
SLDTEXTSTYLE0
 73
     1
 44
1.0
  0
MTEXT
  5
5076
330
1F
100
AcDbEntity
  8
FORMAT
  6
Continuous
 62
     7
370
     0
100
AcDbMText
 10
-59.43567270240214
 20
124.7889510103372
 30
0.0
 40
1.680456030719755
 41
0.0
 46
0.0
 71
     1
 72
     1
  1
A
  7
SLDTEXTSTYLE0
 73
     1
 44
1.0
  0
MTEXT
  5
5077
330
1F
100
AcDbEntity
  8
FORMAT
  6
Continuous
 62
     7
370
     0
100
AcDbMText
 10
53.54616864509694
 20
139.3364937096857
 30
0.0
 40
1.638444629951761
 41
0.0
 46
0.0
 71
     1
 72
     1
  1
3
  7
SLDTEXTSTYLE0
 73
     1
 44
1.0
  0
MTEXT
  5
5078
330
1F
100
AcDbEntity
  8
FORMAT
  6
Continuous
 62
     7
370
     0
100
AcDbMText
 10
9.313692695097188
 20
139.3364937096857
 30
0.0
 40
1.638444629951761
 41
0.0
 46
0.0
 71
     1
 72
     1
  1
2
  7
SLDTEXTSTYLE0
 73
     1
 44
1.0
  0
MTEXT
  5
5079
330
1F
100
AcDbEntity
  8
FORMAT
  6
Continuous
 62
     7
370
     0
100
AcDbMText
 10
-34.55017928871189
 20
139.3364937096857
 30
0.0
 40
1.638444629951761
 41
0.0
 46
0.0
 71
     1
 72
     1
  1
1
  7
SLDTEXTSTYLE0
 73
     1
 44
1.0
  0
MTEXT
  5
507A
330
1F
100
AcDbEntity
  8
FORMAT
  6
Continuous
 62
     7
370
     0
100
AcDbMText
 10
142.0111205450969
 20
139.3364937096857
 30
0.0
 40
1.638444629951761
 41
0.0
 46
0.0
 71
     1
 72
     1
  1
5
  7
SLDTEXTSTYLE0
 73
     1
 44
1.0
  0
MTEXT
  5
507B
330
1F
100
AcDbEntity
  8
FORMAT
  6
Continuous
 62
     7
370
     0
100
AcDbMText
 10
298.9607990975976
 20
34.05566701033683
 30
0.0
 40
1.680456030719755
 41
0.0
 46
0.0
 71
     1
 72
     1
  1
C
  7
SLDTEXTSTYLE0
 73
     1
 44
1.0
  0
MTEXT
  5
507C
330
1F
100
AcDbEntity
  8
FORMAT
  6
Continuous
 62
     7
370
     0
100
AcDbMText
 10
298.9607990975976
 20
-11.31097498966312
 30
0.0
 40
1.680456030719755
 41
0.0
 46
0.0
 71
     1
 72
     1
  1
D
  7
SLDTEXTSTYLE0
 73
     1
 44
1.0
  0
MTEXT
  5
507D
330
1F
100
AcDbEntity
  8
FORMAT
  6
Continuous
 62
     7
370
     0
100
AcDbMText
 10
97.77864459509714
 20
139.3364937096857
 30
0.0
 40
1.638444629951761
 41
0.0
 46
0.0
 71
     1
 72
     1
  1
4
  7
SLDTEXTSTYLE0
 73
     1
 44
1.0
  0
MTEXT
  5
507E
330
1F
100
AcDbEntity
  8
FORMAT
  6
Continuous
 62
     7
370
     0
100
AcDbMText
 10
186.2435964950971
 20
139.3364937096857
 30
0.0
 40
1.638444629951761
 41
0.0
 46
0.0
 71
     1
 72
     1
  1
6
  7
SLDTEXTSTYLE0
 73
     1
 44
1.0
  0
MTEXT
  5
507F
330
1F
100
AcDbEntity
  8
FORMAT
  6
Continuous
 62
     7
370
     0
100
AcDbMText
 10
230.4760724450968
 20
139.3364937096857
 30
0.0
 40
1.638444629951761
 41
0.0
 46
0.0
 71
     1
 72
     1
  1
7
  7
SLDTEXTSTYLE0
 73
     1
 44
1.0
  0
MTEXT
  5
5080
330
1F
100
AcDbEntity
  8
FORMAT
  6
Continuous
 62
     7
370
     0
100
AcDbMText
 10
274.7085483950966
 20
139.3364937096857
 30
0.0
 40
1.638444629951761
 41
0.0
 46
0.0
 71
     1
 72
     1
  1
8
  7
SLDTEXTSTYLE0
 73
     1
 44
1.0
  0
MTEXT
  5
5081
330
1F
100
AcDbEntity
  8
FORMAT
  6
Continuous
 62
     7
370
     0
100
AcDbMText
 10
298.9607990975976
 20
124.7889510103372
 30
0.0
 40
1.680456030719755
 41
0.0
 46
0.0
 71
     1
 72
     1
  1
A
  7
SLDTEXTSTYLE0
 73
     1
 44
1.0
  0
MTEXT
  5
5082
330
1F
100
AcDbEntity
  8
FORMAT
  6
Continuous
 62
     7
370
     0
100
AcDbMText
 10
298.9607990975976
 20
79.42230901033679
 30
0.0
 40
1.680456030719755
 41
0.0
 46
0.0
 71
     1
 72
     1
  1
B
  7
SLDTEXTSTYLE0
 73
     1
 44
1.0
  0
MTEXT
  5
5083
330
1F
100
AcDbEntity
  8
legende
  6
Continuous
 62
     7
370
     0
100
AcDbMText
 10
179.8417270605739
 20
-116.7553996156385
 30
0.0
 40
1.360999259999999
 41
0.0
 46
0.0
 71
     1
 72
     1
  1
{\fFangSong|b0|i0|c0|p49;Allgemeintoleranz:}
 73
     1
 44
1.0
  0
MTEXT
  5
5084
330
1F
100
AcDbEntity
  8
legende
  6
Continuous
 62
     7
370
     0
100
AcDbMText
 10
220.0301166717316
 20
-116.8776932322999
 30
0.0
 40
1.360999259999999
 41
0.0
 46
0.0
 71
     1
 72
     1
  1
{\fFangSong|b0|i0|c0|p49;Oberfl}ä{\fFangSong|b0|i0|c0|p49;che\W0.8;:}
 73
     1
 44
1.0
  0
MTEXT
  5
5085
330
1F
100
AcDbEntity
  8
legende
  6
Continuous
 62
     7
370
     0
100
AcDbMText
 10
207.6479132727684
 20
-85.83717883601332
 30
0.0
 40
1.814665707038518
 41
0.0
 46
0.0
 71
     1
 72
     1
  1
{\fFangSong|b0|i0|c0|p49;Datum}
 73
     1
 44
1.0
  0
MTEXT
  5
5086
330
1F
100
AcDbEntity
  8
legende
  6
Continuous
 62
     7
370
     0
100
AcDbMText
 10
191.8756032663375
 20
-86.06338861253801
 30
0.0
 40
1.814665707038518
 41
0.0
 46
0.0
 71
     1
 72
     1
  1
{\fFangSong|b0|i0|c0|p49;Name}
 73
     1
 44
1.0
  0
MTEXT
  5
5087
330
1F
100
AcDbEntity
  8
legende
  6
Continuous
 62
     7
370
     0
100
AcDbMText
 10
179.8264671718632
 20
-90.3919943260181
 30
0.0
 40
1.814665707038518
 41
0.0
 46
0.0
 71
     1
 72
     1
  1
{\fFangSong|b0|i0|c0|p49;Bearb.}
 73
     1
 44
1.0
  0
MTEXT
  5
5088
330
1F
100
AcDbEntity
  8
legende
  6
Continuous
 62
     7
370
     0
100
AcDbMText
 10
179.8264671718632
 20
-94.24815889601779
 30
0.0
 40
1.814665707038518
 41
0.0
 46
0.0
 71
     1
 72
     1
  1
{\fFangSong|b0|i0|c0|p49;Gepr}.
 73
     1
 44
1.0
  0
MTEXT
  5
5089
330
1F
100
AcDbEntity
  8
legende
  6
Continuous
 62
     7
370
     0
100
AcDbMText
 10
179.8264671718632
 20
-98.10432346601794
 30
0.0
 40
1.814665707038518
 41
0.0
 46
0.0
 71
     1
 72
     1
  1
{\fFangSong|b0|i0|c0|p49;Norm.}
 73
     1
 44
1.0
  0
MTEXT
  5
508A
330
1F
100
AcDbEntity
  8
legende
  6
Continuous
 62
     7
370
     0
100
AcDbMText
 10
221.3409022448061
 20
-85.67116803696093
 30
0.0
 40
1.814665707038518
 41
0.0
 46
0.0
 71
     1
 72
     1
  1
{\fFangSong|b0|i0|c0|p49;Ma}ß{\fFangSong|b0|i0|c0|p49;stab:}
 73
     1
 44
1.0
  0
MTEXT
  5
508B
330
1F
100
AcDbEntity
  8
legende
  6
Continuous
 62
     7
370
     0
100
AcDbMText
 10
221.2325683009788
 20
-92.22775607020606
 30
0.0
 40
1.814665707038518
 41
0.0
 46
0.0
 71
     1
 72
     1
  1
{\fFangSong|b0|i0|c0|p49;Werkstoff}:
 73
     1
 44
1.0
  0
MTEXT
  5
508C
330
1F
100
AcDbEntity
  8
legende
  6
Continuous
 62
     7
370
     0
100
AcDbMText
 10
267.994324668666
 20
-85.9510956955429
 30
0.0
 40
1.81466568
 41
0.0
 46
0.0
 71
     1
 72
     1
  1
{\fFangSong|b0|i0|c0|p49;Darstellung Methode E}
 73
     1
 44
1.0
  0
MTEXT
  5
508D
330
1F
100
AcDbEntity
  8
legende
  6
Continuous
 62
     7
370
     0
100
AcDbMText
 10
254.6459342062651
 20
-85.99689071573777
 30
0.0
 40
2.268332099999999
 41
5.61460345291547
 46
0.0
 71
     1
 72
     1
  1
{\fFagoMoRegular-Roman|b0|i0|c0|p49;\W1;A3}
  7
SLDTEXTSTYLE1
 73
     1
 44
1.0
  0
MTEXT
  5
508E
330
1F
100
AcDbEntity
  8
legende
  6
Continuous
 62
     7
370
     0
100
AcDbMText
 10
234.939458079946
 20
-85.66465930043944
 30
0.0
 40
2.268332099999999
 41
0.0
 46
0.0
 71
     1
 72
     1
  1
{\fFagoMoRegular-Roman|b0|i0|c0|p49;1:1}
 73
     1
 44
1.0
  0
MTEXT
  5
508F
330
1F
100
AcDbEntity
  8
legende
  6
Continuous
 62
     7
370
     0
100
AcDbMText
 10
189.5476622427893
 20
-90.19300924916217
 30
0.0
 40
1.360999259999999
 41
0.0
 46
0.0
 71
     1
 72
     1
  1
{\fFagoMoRegular-Roman|b0|i0|c0|p49;M.Schmitz}
 73
     1
 44
1.0
  0
MTEXT
  5
5090
330
1F
100
AcDbEntity
  8
legende
  6
Continuous
 62
     7
370
     0
100
AcDbMText
 10
204.7743908055875
 20
-90.3862638307811
 30
0.0
 40
1.360999259999999
 41
0.0
 46
0.0
 71
     1
 72
     1
  1
{\fFagoMoRegular-Roman|b0|i0|c0|p49;30.01.2014}
 73
     1
 44
1.0
  0
MTEXT
  5
5091
330
1F
100
AcDbEntity
  8
legende
  6
Continuous
100
AcDbMText
 10
242.5467829408349
 20
-105.3299453614592
 30
0.0
 40
2.268332099999999
 41
18.39195005441751
 46
0.0
 71
     1
 72
     5
  1
 Kachel M6
 73
     1
 44
1.0
1001
ACAD
1000
ACAD_MTEXT_COLUMN_INFO_BEGIN
1070
    75
1070
     2
1070
    79
1070
     0
1070
    76
1070
     1
1070
    78
1070
     0
1070
    48
1040
18.39195005441751
1070
    49
1040
1.0
1070
    50
1070
     1
1040
0.0
1000
ACAD_MTEXT_COLUMN_INFO_END
  0
MTEXT
  5
5092
102
{ACAD_XDICTIONARY
360
5093
102
}
330
1F
100
AcDbEntity
  8
legende
  6
Continuous
100
AcDbMText
 10
235.0655437124312
 20
-91.94245289558205
 30
0.0
 40
2.268332099999999
 41
27.95916459973751
 46
0.0
 71
     1
 72
     5
  1
{\fFagoMoRegular-Roman|b0|i0|c0|p49;FR4 ULV94/0}
 73
     1
 44
1.0
1001
AcadAnnotative
1000
AnnotativeData
1002
{
1070
     1
1070
     0
1002
}
1001
ACAD
1000
ACAD_MTEXT_COLUMN_INFO_BEGIN
1070
    75
1070
     2
1070
    79
1070
     0
1070
    76
1070
     1
1070
    78
1070
     0
1070
    48
1040
27.95916459973751
1070
    49
1040
1.0
1070
    50
1070
     1
1040
0.0
1000
ACAD_MTEXT_COLUMN_INFO_END
  0
MTEXT
  5
5098
330
1F
100
AcDbEntity
  8
legende
  6
Continuous
100
AcDbMText
 10
179.6765739950749
 20
-101.6268883562353
 30
0.0
 40
1.134166049999999
 41
41.47078044917225
 46
0.0
 71
     1
 72
     5
  1
{\fFagoMoRegular-Roman|b0|i0|c0|p49;\H1.2x;\LSchnick Schnack Systems GmbH, \P50829 Köln\l\P\H0.9x;Für diese Zeichnung behalten wir uns alle Rechte vor. Ohne Zustimmung darf sie weder vervielfältigt noch Dritten zugänglich gemacht werden.\H1.1111x;  }
 73
     1
 44
1.0
1001
ACAD
1000
ACAD_MTEXT_COLUMN_INFO_BEGIN
1070
    75
1070
     2
1070
    79
1070
     0
1070
    76
1070
     1
1070
    78
1070
     0
1070
    48
1040
41.47078044917225
1070
    49
1040
1.0
1070
    50
1070
     1
1040
15.44001489176902
1000
ACAD_MTEXT_COLUMN_INFO_END
  0
LINE
  5
5099
330
1F
100
AcDbEntity
  8
legende
  6
Continuous
370
     0
100
AcDbLine
 10
219.2364360529789
 20
-96.75272508284354
 30
0.0
 11
301.8935325893206
 21
-96.75272508284354
 31
0.0
  0
LWPOLYLINE
  5
509A
330
1F
100
AcDbEntity
  8
legende
  6
Continuous
370
     0
100
AcDbPolyline
 90
        3
 70
     0
 43
0.0
 10
219.1771097068706
 20
-100.7222698504098
 10
179.1337205245779
 20
-100.7222698504098
 10
179.1337205245779
 20
-115.3375044493988
  0
LINE
  5
509B
330
1F
100
AcDbEntity
  8
legende
  6
Continuous
370
     0
100
AcDbLine
 10
219.2364360529789
 20
-85.17795006993049
 30
0.0
 11
301.9840216896148
 21
-85.17795006993049
 31
0.0
  0
LINE
  5
509C
330
1F
100
AcDbEntity
  8
legende
  6
Continuous
370
     0
100
AcDbLine
 10
219.2364360529789
 20
-89.04039594284325
 30
0.0
 11
179.1323014976071
 21
-89.04039594284325
 31
0.0
  0
LINE
  5
509D
330
1F
100
AcDbEntity
  8
legende
  6
Continuous
370
     0
100
AcDbLine
 10
219.1771935398763
 20
-92.95326881534368
 30
0.0
 11
179.1324303141766
 21
-92.95326881534368
 31
0.0
  0
LINE
  5
509E
330
1F
100
AcDbEntity
  8
legende
  6
Continuous
370
     0
100
AcDbLine
 10
219.1771097068706
 20
-85.17795006993049
 30
0.0
 11
219.1771097068706
 21
-119.889503706384
 31
0.0
  0
MTEXT
  5
509F
330
1F
100
AcDbEntity
  8
legende
  6
Continuous
100
AcDbMText
 10
252.8400424516992
 20
-116.7494467268994
 30
0.0
 40
1.360999259999999
 41
24.96734507812835
 46
0.0
 71
     1
 72
     5
  1
{\fFagoMoRegular-Roman|b0|i0|c0|p49;\W0.9;Blatt 1 von 1}
 73
     1
 44
1.0
1001
ACAD
1000
ACAD_MTEXT_COLUMN_INFO_BEGIN
1070
    75
1070
     2
1070
    79
1070
     0
1070
    76
1070
     1
1070
    78
1070
     0
1070
    48
1040
24.96734507812835
1070
    49
1040
1.0
1070
    50
1070
     1
1040
0.0
1000
ACAD_MTEXT_COLUMN_INFO_END
  0
MTEXT
  5
50A0
330
1F
100
AcDbEntity
  8
legende
  6
Continuous
100
AcDbMText
 10
233.7477224616084
 20
-117.0353157817132
 30
0.0
 40
1.360999259999999
 41
16.28537806106351
 46
0.0
 71
     1
 72
     5
  1
{\fFagoMoRegular-Roman|b0|i0|c0|p49;HAL Leadfree}
 73
     1
 44
1.0
1001
ACAD
1000
ACAD_MTEXT_COLUMN_INFO_BEGIN
1070
    75
1070
     2
1070
    79
1070
     0
1070
    76
1070
     1
1070
    78
1070
     0
1070
    48
1040
16.28537806106351
1070
    49
1040
1.0
1070
    50
1070
     1
1040
0.0
1000
ACAD_MTEXT_COLUMN_INFO_END
  0
LWPOLYLINE
  5
50A1
330
1F
100
AcDbEntity
  8
legende
  6
Continuous
370
     0
100
AcDbPolyline
 90
        2
 70
     0
 43
0.0
 10
179.1337205245779
 20
-115.3375044493988
 10
301.9786338854826
 20
-115.3375044493988
  0
LINE
  5
50A2
330
1F
100
AcDbEntity
  8
legende
  6
Continuous
370
     0
100
AcDbLine
 10
219.2364360529789
 20
-96.75272508284354
 30
0.0
 11
179.1325265571047
 21
-96.75272508284354
 31
0.0
  0
MTEXT
  5
50A3
330
1F
100
AcDbEntity
  8
legende
  6
Continuous
100
AcDbMText
 10
198.2537168708311
 20
-116.950657840936
 30
0.0
 40
1.360999259999999
 41
22.40709615075252
 46
0.0
 71
     1
 72
     5
  1
{\fFagoMoRegular-Roman|b0|i0|c0|p49;DIN 7168 mittel}
 73
     1
 44
1.0
1001
ACAD
1000
ACAD_MTEXT_COLUMN_INFO_BEGIN
1070
    75
1070
     2
1070
    79
1070
     0
1070
    76
1070
     1
1070
    78
1070
     0
1070
    48
1040
22.40709615075252
1070
    49
1040
1.0
1070
    50
1070
     1
1040
0.0
1000
ACAD_MTEXT_COLUMN_INFO_END
  0
MTEXT
  5
50A4
330
1F
100
AcDbEntity
  8
legende
  6
Continuous
100
AcDbMText
 10
220.0991221905312
 20
-97.50396966221991
 30
0.0
 40
2.721998519999999
 41
38.97774214014498
 46
0.0
 71
     1
 72
     5
  1
{\fFangSong|b0|i0|c0|p49;Benennung:}
 73
     1
 44
1.0
1001
ACAD
1000
ACAD_MTEXT_COLUMN_INFO_BEGIN
1070
    75
1070
     2
1070
    79
1070
     0
1070
    76
1070
     1
1070
    78
1070
     0
1070
    48
1040
38.97774214014498
1070
    49
1040
1.0
1070
    50
1070
     1
1040
0.0
1000
ACAD_MTEXT_COLUMN_INFO_END
  0
LINE
  5
50A5
330
1F
100
AcDbEntity
  8
FORMAT
  6
Continuous
100
AcDbLine
 10
297.4485795216694
 20
-69.75955929267377
 30
0.0
 11
297.4485795216694
 21
-85.17940628544341
 31
0.0
  0
OLE2FRAME
  5
50A6
330
1F
100
AcDbEntity
  8
legende
  6
Continuous
100
AcDbOle2Frame
 70
     2
  1
OLE
1001
ACAD
1000
OLEBEGIN
1070
    70
1070
     1
1070
    71
1070
     1
1070
    40
1040
0.0
1070
    41
1040
20.86788779832568
1070
    42
1040
15.60424817340254
1070
    72
1070
     0
1070
     3
1000

1070
    90
1071
        0
1070
    43
1040
0.0
1070
     4
1000

1070
    91
1071
        0
1070
    44
1040
0.0
1000
OLEEND
  0
LWPOLYLINE
  5
50A7
330
1F
100
AcDbEntity
  8
Blattrahmen
100
AcDbPolyline
 90
        4
 70
     1
 43
0.0
 10
392.0612906960585
 20
145.383478179784
 10
-192.3691158256408
 20
145.383478179784
 10
-192.3691158256408
 20
-124.2325375387714
 10
392.0612906960585
 20
-124.2325375387714
  0
ENDSEC
  0
SECTION
  2
OBJECTS
  0
DICTIONARY
  5
C
330
0
100
AcDbDictionary
281
     1
  3
ACAD_CIP_PREVIOUS_PRODUCT_INFO
350
334
  3
ACAD_COLOR
350
329
  3
ACAD_DETAILVIEWSTYLE
350
330
  3
ACAD_GROUP
350
D
  3
ACAD_IMAGE_VARS
350
2D2
  3
ACAD_LAYOUT
350
1A
  3
ACAD_MATERIAL
350
2F7
  3
ACAD_MLEADERSTYLE
350
32C
  3
ACAD_MLINESTYLE
350
17
  3
ACAD_PLOTSETTINGS
350
19
  3
ACAD_PLOTSTYLENAME
350
E
  3
ACAD_SCALELIST
350
298
  3
ACAD_SECTIONVIEWSTYLE
350
32E
  3
ACAD_TABLESTYLE
350
32A
  3
ACAD_VISUALSTYLE
350
310
  3
ACDB_RECOMPOSE_DATA
350
50D3
  3
AcDbVariableDictionary
350
2EC
  3
AcDsDecomposeData
350
50D9
  3
APPDATA
350
2D1
  0
DICTIONARY
  5
2D4
330
2
100
AcDbDictionary
280
     1
281
     1
  3
ACAD_LAYERSTATES
360
2D5
  3
ACLYDICTIONARY
360
2EB
  0
DICTIONARY
  5
355
330
10
100
AcDbDictionary
280
     1
281
     1
  3
ADSK_XREC_LAYER_RECONCILED
360
356
  0
DICTIONARY
  5
359
330
2D7
100
AcDbDictionary
280
     1
281
     1
  3
ADSK_XREC_LAYER_RECONCILED
360
35A
  0
DICTIONARY
  5
4FBC
330
4FBB
100
AcDbDictionary
280
     1
281
     1
  0
DICTIONARY
  5
EF1
330
1F
100
AcDbDictionary
280
     1
281
     1
  3
ACAD_SORTENTS
360
EF2
  0
DICTIONARY
  5
5093
330
5092
100
AcDbDictionary
280
     1
281
     1
  3
AcDbContextDataManager
360
5094
  0
XRECORD
  5
334
102
{ACAD_REACTORS
330
C
102
}
330
C
100
AcDbXrecord
280
     1
300
ACDLT
300
2013
300

  0
DICTIONARY
  5
329
102
{ACAD_REACTORS
330
C
102
}
330
C
100
AcDbDictionary
281
     1
  0
DICTIONARY
  5
330
102
{ACAD_REACTORS
330
C
102
}
330
C
100
AcDbDictionary
281
     1
  3
Metric50
350
331
  0
DICTIONARY
  5
D
102
{ACAD_REACTORS
330
C
102
}
330
C
100
AcDbDictionary
281
     1
  3
*A1
350
47DE
  3
*A2
350
47E3
  0
RASTERVARIABLES
  5
2D2
102
{ACAD_REACTORS
330
C
102
}
330
C
100
AcDbRasterVariables
 90
        0
 70
     1
 71
     1
 72
     1
  0
DICTIONARY
  5
1A
102
{ACAD_REACTORS
330
C
102
}
330
C
100
AcDbDictionary
281
     1
  3
Layout1
350
1E
  3
Layout2
350
26
  3
Model
350
22
  0
DICTIONARY
  5
2F7
102
{ACAD_REACTORS
330
C
102
}
330
C
100
AcDbDictionary
281
     1
  3
ByBlock
350
300
  3
ByLayer
350
2F8
  3
Global
350
308
  0
DICTIONARY
  5
32C
102
{ACAD_REACTORS
330
C
102
}
330
C
100
AcDbDictionary
281
     1
  3
Standard
350
32D
  0
DICTIONARY
  5
17
102
{ACAD_REACTORS
330
C
102
}
330
C
100
AcDbDictionary
281
     1
  3
Standard
350
18
  0
DICTIONARY
  5
19
102
{ACAD_REACTORS
330
C
102
}
330
C
100
AcDbDictionary
281
     1
  0
ACDBDICTIONARYWDFLT
  5
E
102
{ACAD_REACTORS
330
C
102
}
330
C
100
AcDbDictionary
281
     1
  3
Normal
350
F
100
AcDbDictionaryWithDefault
340
F
  0
DICTIONARY
  5
298
102
{ACAD_REACTORS
330
C
102
}
330
C
100
AcDbDictionary
281
     1
  3
A0
350
299
  3
A1
350
29A
  3
A2
350
29B
  3
A3
350
29C
  3
A4
350
29D
  3
A5
350
29E
  3
A6
350
29F
  3
A7
350
2A0
  3
A8
350
2A1
  3
A9
350
2A2
  3
B0
350
2A3
  3
B1
350
2A4
  3
B2
350
2A5
  3
B3
350
2A6
  3
B4
350
2A7
  3
B5
350
2A8
  3
B6
350
2A9
  3
B7
350
2AA
  3
B8
350
2AB
  3
B9
350
2AC
  3
C0
350
2AD
  3
C1
350
2AE
  3
C2
350
2AF
  3
C3
350
2B0
  3
C4
350
2B1
  3
C5
350
2B2
  3
C6
350
2B3
  3
C7
350
2B4
  3
C8
350
2B5
  3
C9
350
2B6
  3
D0
350
2B7
  3
D1
350
2B8
  3
D2
350
2B9
  0
DICTIONARY
  5
32E
102
{ACAD_REACTORS
330
C
102
}
330
C
100
AcDbDictionary
281
     1
  3
Metric50
350
32F
  0
DICTIONARY
  5
32A
102
{ACAD_REACTORS
330
C
102
}
330
C
100
AcDbDictionary
281
     1
  3
Standard
350
32B
  0
DICTIONARY
  5
310
102
{ACAD_REACTORS
330
C
102
}
330
C
100
AcDbDictionary
281
     1
  3
2dWireframe
350
316
  3
Basic
350
315
  3
Brighten
350
31C
  3
ColorChange
350
320
  3
Conceptual
350
319
  3
Dim
350
31B
  3
EdgeColorOff
350
328
  3
Facepattern
350
31F
  3
Flat
350
311
  3
FlatWithEdges
350
312
  3
Gouraud
350
313
  3
GouraudWithEdges
350
314
  3
Hidden
350
318
  3
JitterOff
350
326
  3
Linepattern
350
31E
  3
OverhangOff
350
327
  3
Realistic
350
31A
  3
Shaded
350
325
  3
Shaded with edges
350
324
  3
Shades of Gray
350
321
  3
Sketchy
350
322
  3
Thicken
350
31D
  3
Wireframe
350
317
  3
X-Ray
350
323
  0
XRECORD
  5
50D3
102
{ACAD_REACTORS
330
C
102
}
330
C
100
AcDbXrecord
280
     1
 90
        1
330
32B
330
5091
330
5092
330
5098
330
509F
330
50A0
330
50A3
330
50A4
  0
DICTIONARY
  5
2EC
102
{ACAD_REACTORS
330
C
102
}
330
C
100
AcDbDictionary
281
     1
  3
CANNOSCALE
350
2F4
  3
CMLEADERSTYLE
350
365
  3
CTABLESTYLE
350
364
  3
CVIEWDETAILSTYLE
350
366
  3
CVIEWSECTIONSTYLE
350
367
  3
LAYEREVAL
350
36A
  3
LAYERNOTIFY
350
36B
  3
LIGHTINGUNITS
350
369
  3
MSLTSCALE
350
368
  0
DICTIONARY
  5
50D9
102
{ACAD_REACTORS
330
C
102
}
330
C
100
AcDbDictionary
281
     1
  3
AcDsRecords
350
50DB
  3
AcDsSchemas
350
50DA
1001
ACAD
1070
     2
  0
DICTIONARY
  5
2D1
102
{ACAD_REACTORS
330
C
102
}
330
C
100
AcDbDictionary
281
     1
  0
DICTIONARY
  5
2D5
102
{ACAD_REACTORS
330
2D4
102
}
330
2D4
100
AcDbDictionary
281
     1
  3
ARGON_LAYERP_1
350
2D6
  3
ARGON_LAYERP_2
350
2E7
  0
DICTIONARY
  5
2EB
102
{ACAD_REACTORS
330
2D4
102
}
330
2D4
100
AcDbDictionary
281
     1
1001
ACAD
1000
<All
  0
XRECORD
  5
356
102
{ACAD_REACTORS
330
355
102
}
330
355
100
AcDbXrecord
280
     1
290
     1
  0
XRECORD
  5
35A
102
{ACAD_REACTORS
330
359
102
}
330
359
100
AcDbXrecord
280
     1
290
     1
  0
SORTENTSTABLE
  5
EF2
102
{ACAD_REACTORS
330
EF1
102
}
330
EF1
100
AcDbSortentsTable
330
1F
  0
DICTIONARY
  5
5094
102
{ACAD_REACTORS
330
5093
102
}
330
5093
100
AcDbDictionary
281
     1
  3
ACDB_ANNOTATIONSCALES
350
5095
  0
ACDBDETAILVIEWSTYLE
  5
331
102
{ACAD_REACTORS
330
330
102
}
330
330
100
AcDbModelDocViewStyle
 70
     0
  3
Metric50
290
     0
100
AcDbDetailViewStyle
 70
     0
 71
     0
 90
        3
 71
     1
340
11
 62
   256
 40
5.0
340
0
 62
   256
 40
5.0
300

 40
0.0
280
     1
 71
     2
340
16
 90
       25
 62
   256
 71
     3
340
11
 62
   256
 40
5.0
 90
        0
 40
15.0
 90
        1
300
%<\AcVar ViewDetailId>% (%<\AcVar ViewScale \f "%sn">%)
 71
     4
340
16
 90
       25
 62
   256
340
16
 90
       25
 62
   256
280
     0
  0
GROUP
  5
47DE
102
{ACAD_REACTORS
330
D
102
}
330
D
100
AcDbGroup
300

 70
     1
 71
     1
340
47DD
340
47DC
340
47DB
340
47DA
340
428B
340
428A
340
4288
340
4287
340
4286
340
4285
340
4284
340
4283
340
4281
340
4280
340
427E
340
4272
340
426C
340
4269
340
4266
340
4263
340
4260
340
425D
340
425A
340
4257
340
4254
340
4251
340
424E
  0
GROUP
  5
47E3
102
{ACAD_REACTORS
330
D
102
}
330
D
100
AcDbGroup
300

 70
     1
 71
     1
340
47E2
340
47E1
340
47E0
340
47DF
340
42CF
340
42CE
340
42CD
340
42CB
340
42CA
340
42C8
340
42C7
340
42C6
340
42C4
340
42C3
340
42C2
340
42BB
340
42B1
340
42AD
340
42A9
340
42A6
340
42A3
340
42A0
340
429D
340
429A
340
4297
340
4294
340
4291
  0
LAYOUT
  5
1E
102
{ACAD_REACTORS
330
1A
102
}
330
1A
100
AcDbPlotSettings
  1

  2
none_device
  4

  6

 40
0.0
 41
0.0
 42
0.0
 43
0.0
 44
0.0
 45
0.0
 46
0.0
 47
0.0
 48
0.0
 49
0.0
140
0.0
141
0.0
142
1.0
143
1.0
 70
   688
 72
     0
 73
     0
 74
     5
  7

 75
    16
147
1.0
 76
     0
 77
     2
 78
   300
148
0.0
149
0.0
100
AcDbLayout
  1
Layout1
 70
     1
 71
     1
 10
0.0
 20
0.0
 11
0.0
 21
0.0
 12
0.0
 22
0.0
 32
0.0
 14
1.000000000000000E+20
 24
1.000000000000000E+20
 34
1.000000000000000E+20
 15
-1.000000000000000E+20
 25
-1.000000000000000E+20
 35
-1.000000000000000E+20
146
0.0
 13
0.0
 23
0.0
 33
0.0
 16
1.0
 26
0.0
 36
0.0
 17
0.0
 27
1.0
 37
0.0
 76
     0
330
1B
  0
LAYOUT
  5
26
102
{ACAD_REACTORS
330
1A
102
}
330
1A
100
AcDbPlotSettings
  1

  2
none_device
  4

  6

 40
0.0
 41
0.0
 42
0.0
 43
0.0
 44
0.0
 45
0.0
 46
0.0
 47
0.0
 48
0.0
 49
0.0
140
0.0
141
0.0
142
1.0
143
1.0
 70
   688
 72
     0
 73
     0
 74
     5
  7

 75
    16
147
1.0
 76
     0
 77
     2
 78
   300
148
0.0
149
0.0
100
AcDbLayout
  1
Layout2
 70
     1
 71
     2
 10
0.0
 20
0.0
 11
0.0
 21
0.0
 12
0.0
 22
0.0
 32
0.0
 14
0.0
 24
0.0
 34
0.0
 15
0.0
 25
0.0
 35
0.0
146
0.0
 13
0.0
 23
0.0
 33
0.0
 16
1.0
 26
0.0
 36
0.0
 17
0.0
 27
1.0
 37
0.0
 76
     0
330
23
  0
LAYOUT
  5
22
102
{ACAD_REACTORS
330
1A
102
}
330
1A
100
AcDbPlotSettings
  1

  2
BroadGun pdfMachine
  4
A3
  6

 40
3.174999952316284
 41
3.174999952316284
 42
3.17498779296875
 43
3.17498779296875
 44
296.9683227539062
 45
419.9889831542968
 46
0.0
 47
1.331786082248498
 48
0.0
 49
0.0
140
0.0
141
0.0
142
1.0
143
1.021958920765234
 70
 11956
 72
     1
 73
     1
 74
     2
  7

 75
     0
147
0.9785129124869401
 76
     0
 77
     2
 78
   300
148
0.0
149
0.0
100
AcDbLayout
  1
Model
 70
     1
 71
     0
 10
0.0
 20
0.0
 11
420.0
 21
297.0
 12
0.0
 22
0.0
 32
0.0
 14
0.0
 24
0.0
 34
0.0
 15
420.0
 25
297.0
 35
0.0
146
0.0
 13
0.0
 23
0.0
 33
0.0
 16
1.0
 26
0.0
 36
0.0
 17
0.0
 27
1.0
 37
0.0
 76
     0
330
1F
331
29
1001
ACAD_PSEXT
1000
BroadGun pdfMachine
1000
BroadGun pdfMachine
1000
PDFPORT1:
1000

1070
     0
  0
MATERIAL
  5
300
102
{ACAD_XDICTIONARY
360
301
102
}
102
{ACAD_REACTORS
330
2F7
102
}
330
2F7
100
AcDbMaterial
  1
ByBlock
 72
     0
 43
0.0008202099737533
 43
0.0
 43
0.0
 43
0.0
 43
0.0
 43
0.0008202099737533
 43
0.0
 43
0.0
 43
0.0
 43
0.0
 43
1.0
 43
0.0
 43
0.0
 43
0.0
 43
0.0
 43
1.0
 77
     0
 47
0.0008202099737533
 47
0.0
 47
0.0
 47
0.0
 47
0.0
 47
0.0008202099737533
 47
0.0
 47
0.0
 47
0.0
 47
0.0
 47
1.0
 47
0.0
 47
0.0
 47
0.0
 47
0.0
 47
1.0
171
     0
 49
0.0008202099737533
 49
0.0
 49
0.0
 49
0.0
 49
0.0
 49
0.0008202099737533
 49
0.0
 49
0.0
 49
0.0
 49
0.0
 49
1.0
 49
0.0
 49
0.0
 49
0.0
 49
0.0
 49
1.0
175
     0
142
0.0008202099737533
142
0.0
142
0.0
142
0.0
142
0.0
142
0.0008202099737533
142
0.0
142
0.0
142
0.0
142
0.0
142
1.0
142
0.0
142
0.0
142
0.0
142
0.0
142
1.0
179
     0
144
0.0008202099737533
144
0.0
144
0.0
144
0.0
144
0.0
144
0.0008202099737533
144
0.0
144
0.0
144
0.0
144
0.0
144
1.0
144
0.0
144
0.0
144
0.0
144
0.0
144
1.0
147
0.0008202099737533
147
0.0
147
0.0
147
0.0
147
0.0
147
0.0008202099737533
147
0.0
147
0.0
147
0.0
147
0.0
147
1.0
147
0.0
147
0.0
147
0.0
147
0.0
147
1.0
  0
MATERIAL
  5
2F8
102
{ACAD_XDICTIONARY
360
2F9
102
}
102
{ACAD_REACTORS
330
2F7
102
}
330
2F7
100
AcDbMaterial
  1
ByLayer
 72
     0
 43
0.0008202099737533
 43
0.0
 43
0.0
 43
0.0
 43
0.0
 43
0.0008202099737533
 43
0.0
 43
0.0
 43
0.0
 43
0.0
 43
1.0
 43
0.0
 43
0.0
 43
0.0
 43
0.0
 43
1.0
 77
     0
 47
0.0008202099737533
 47
0.0
 47
0.0
 47
0.0
 47
0.0
 47
0.0008202099737533
 47
0.0
 47
0.0
 47
0.0
 47
0.0
 47
1.0
 47
0.0
 47
0.0
 47
0.0
 47
0.0
 47
1.0
171
     0
 49
0.0008202099737533
 49
0.0
 49
0.0
 49
0.0
 49
0.0
 49
0.0008202099737533
 49
0.0
 49
0.0
 49
0.0
 49
0.0
 49
1.0
 49
0.0
 49
0.0
 49
0.0
 49
0.0
 49
1.0
175
     0
142
0.0008202099737533
142
0.0
142
0.0
142
0.0
142
0.0
142
0.0008202099737533
142
0.0
142
0.0
142
0.0
142
0.0
142
1.0
142
0.0
142
0.0
142
0.0
142
0.0
142
1.0
179
     0
144
0.0008202099737533
144
0.0
144
0.0
144
0.0
144
0.0
144
0.0008202099737533
144
0.0
144
0.0
144
0.0
144
0.0
144
1.0
144
0.0
144
0.0
144
0.0
144
0.0
144
1.0
147
0.0008202099737533
147
0.0
147
0.0
147
0.0
147
0.0
147
0.0008202099737533
147
0.0
147
0.0
147
0.0
147
0.0
147
1.0
147
0.0
147
0.0
147
0.0
147
0.0
147
1.0
  0
MATERIAL
  5
308
102
{ACAD_XDICTIONARY
360
309
102
}
102
{ACAD_REACTORS
330
2F7
102
}
330
2F7
100
AcDbMaterial
  1
Global
 72
     0
 43
0.0008202099737533
 43
0.0
 43
0.0
 43
0.0
 43
0.0
 43
0.0008202099737533
 43
0.0
 43
0.0
 43
0.0
 43
0.0
 43
1.0
 43
0.0
 43
0.0
 43
0.0
 43
0.0
 43
1.0
 77
     0
 47
0.0008202099737533
 47
0.0
 47
0.0
 47
0.0
 47
0.0
 47
0.0008202099737533
 47
0.0
 47
0.0
 47
0.0
 47
0.0
 47
1.0
 47
0.0
 47
0.0
 47
0.0
 47
0.0
 47
1.0
171
     0
 49
0.0008202099737533
 49
0.0
 49
0.0
 49
0.0
 49
0.0
 49
0.0008202099737533
 49
0.0
 49
0.0
 49
0.0
 49
0.0
 49
1.0
 49
0.0
 49
0.0
 49
0.0
 49
0.0
 49
1.0
175
     0
142
0.0008202099737533
142
0.0
142
0.0
142
0.0
142
0.0
142
0.0008202099737533
142
0.0
142
0.0
142
0.0
142
0.0
142
1.0
142
0.0
142
0.0
142
0.0
142
0.0
142
1.0
179
     0
144
0.0008202099737533
144
0.0
144
0.0
144
0.0
144
0.0
144
0.0008202099737533
144
0.0
144
0.0
144
0.0
144
0.0
144
1.0
144
0.0
144
0.0
144
0.0
144
0.0
144
1.0
147
0.0008202099737533
147
0.0
147
0.0
147
0.0
147
0.0
147
0.0008202099737533
147
0.0
147
0.0
147
0.0
147
0.0
147
1.0
147
0.0
147
0.0
147
0.0
147
0.0
147
1.0
  0
MLEADERSTYLE
  5
32D
102
{ACAD_REACTORS
330
32C
102
}
330
32C
100
AcDbMLeaderStyle
179
     2
170
     2
171
     1
172
     0
 90
        2
 40
0.0
 41
0.0
173
     1
 91
-1056964608
340
14
 92
       -2
290
     1
 42
2.0
291
     1
 43
0.36
  3
Standard
 44
4.0
300

342
11
174
     1
178
     6
175
     1
176
     0
 93
-1056964608
 45
4.0
292
     0
297
     0
 46
4.0
 94
-1056964608
 47
1.0
 49
1.0
140
1.0
293
     1
141
0.0
294
     1
177
     0
142
1.0
295
     0
296
     0
143
0.125
271
     0
272
     9
273
     9
  0
MLINESTYLE
  5
18
102
{ACAD_REACTORS
330
17
102
}
330
17
100
AcDbMlineStyle
  2
STANDARD
 70
     0
  3

 62
   256
 51
90.0
 52
90.0
 71
     2
 49
0.5
 62
   256
  6
BYLAYER
 49
-0.5
 62
   256
  6
BYLAYER
  0
ACDBPLACEHOLDER
  5
F
102
{ACAD_REACTORS
330
E
102
}
330
E
  0
SCALE
  5
299
102
{ACAD_REACTORS
330
298
102
}
330
298
100
AcDbScale
 70
     0
300
1:1
140
1.0
141
1.0
290
     1
  0
SCALE
  5
29A
102
{ACAD_REACTORS
330
298
102
}
330
298
100
AcDbScale
 70
     0
300
1:2
140
1.0
141
2.0
290
     0
  0
SCALE
  5
29B
102
{ACAD_REACTORS
330
298
102
}
330
298
100
AcDbScale
 70
     0
300
1:4
140
1.0
141
4.0
290
     0
  0
SCALE
  5
29C
102
{ACAD_REACTORS
330
298
102
}
330
298
100
AcDbScale
 70
     0
300
1:5
140
1.0
141
5.0
290
     0
  0
SCALE
  5
29D
102
{ACAD_REACTORS
330
298
102
}
330
298
100
AcDbScale
 70
     0
300
1:8
140
1.0
141
8.0
290
     0
  0
SCALE
  5
29E
102
{ACAD_REACTORS
330
298
102
}
330
298
100
AcDbScale
 70
     0
300
1:10
140
1.0
141
10.0
290
     0
  0
SCALE
  5
29F
102
{ACAD_REACTORS
330
298
102
}
330
298
100
AcDbScale
 70
     0
300
1:16
140
1.0
141
16.0
290
     0
  0
SCALE
  5
2A0
102
{ACAD_REACTORS
330
298
102
}
330
298
100
AcDbScale
 70
     0
300
1:20
140
1.0
141
20.0
290
     0
  0
SCALE
  5
2A1
102
{ACAD_REACTORS
330
298
102
}
330
298
100
AcDbScale
 70
     0
300
1:30
140
1.0
141
30.0
290
     0
  0
SCALE
  5
2A2
102
{ACAD_REACTORS
330
298
102
}
330
298
100
AcDbScale
 70
     0
300
1:40
140
1.0
141
40.0
290
     0
  0
SCALE
  5
2A3
102
{ACAD_REACTORS
330
298
102
}
330
298
100
AcDbScale
 70
     0
300
1:50
140
1.0
141
50.0
290
     0
  0
SCALE
  5
2A4
102
{ACAD_REACTORS
330
298
102
}
330
298
100
AcDbScale
 70
     0
300
1:100
140
1.0
141
100.0
290
     0
  0
SCALE
  5
2A5
102
{ACAD_REACTORS
330
298
102
}
330
298
100
AcDbScale
 70
     0
300
2:1
140
2.0
141
1.0
290
     0
  0
SCALE
  5
2A6
102
{ACAD_REACTORS
330
298
102
}
330
298
100
AcDbScale
 70
     0
300
4:1
140
4.0
141
1.0
290
     0
  0
SCALE
  5
2A7
102
{ACAD_REACTORS
330
298
102
}
330
298
100
AcDbScale
 70
     0
300
8:1
140
8.0
141
1.0
290
     0
  0
SCALE
  5
2A8
102
{ACAD_REACTORS
330
298
102
}
330
298
100
AcDbScale
 70
     0
300
10:1
140
10.0
141
1.0
290
     0
  0
SCALE
  5
2A9
102
{ACAD_REACTORS
330
298
102
}
330
298
100
AcDbScale
 70
     0
300
100:1
140
100.0
141
1.0
290
     0
  0
SCALE
  5
2AA
102
{ACAD_REACTORS
330
298
102
}
330
298
100
AcDbScale
 70
     0
300
1/128" = 1'-0"
140
0.0078125
141
12.0
290
     0
  0
SCALE
  5
2AB
102
{ACAD_REACTORS
330
298
102
}
330
298
100
AcDbScale
 70
     0
300
1/64" = 1'-0"
140
0.015625
141
12.0
290
     0
  0
SCALE
  5
2AC
102
{ACAD_REACTORS
330
298
102
}
330
298
100
AcDbScale
 70
     0
300
1/32" = 1'-0"
140
0.03125
141
12.0
290
     0
  0
SCALE
  5
2AD
102
{ACAD_REACTORS
330
298
102
}
330
298
100
AcDbScale
 70
     0
300
1/16" = 1'-0"
140
0.0625
141
12.0
290
     0
  0
SCALE
  5
2AE
102
{ACAD_REACTORS
330
298
102
}
330
298
100
AcDbScale
 70
     0
300
3/32" = 1'-0"
140
0.09375
141
12.0
290
     0
  0
SCALE
  5
2AF
102
{ACAD_REACTORS
330
298
102
}
330
298
100
AcDbScale
 70
     0
300
1/8" = 1'-0"
140
0.125
141
12.0
290
     0
  0
SCALE
  5
2B0
102
{ACAD_REACTORS
330
298
102
}
330
298
100
AcDbScale
 70
     0
300
3/16" = 1'-0"
140
0.1875
141
12.0
290
     0
  0
SCALE
  5
2B1
102
{ACAD_REACTORS
330
298
102
}
330
298
100
AcDbScale
 70
     0
300
1/4" = 1'-0"
140
0.25
141
12.0
290
     0
  0
SCALE
  5
2B2
102
{ACAD_REACTORS
330
298
102
}
330
298
100
AcDbScale
 70
     0
300
3/8" = 1'-0"
140
0.375
141
12.0
290
     0
  0
SCALE
  5
2B3
102
{ACAD_REACTORS
330
298
102
}
330
298
100
AcDbScale
 70
     0
300
1/2" = 1'-0"
140
0.5
141
12.0
290
     0
  0
SCALE
  5
2B4
102
{ACAD_REACTORS
330
298
102
}
330
298
100
AcDbScale
 70
     0
300
3/4" = 1'-0"
140
0.75
141
12.0
290
     0
  0
SCALE
  5
2B5
102
{ACAD_REACTORS
330
298
102
}
330
298
100
AcDbScale
 70
     0
300
1" = 1'-0"
140
1.0
141
12.0
290
     0
  0
SCALE
  5
2B6
102
{ACAD_REACTORS
330
298
102
}
330
298
100
AcDbScale
 70
     0
300
1-1/2" = 1'-0"
140
1.5
141
12.0
290
     0
  0
SCALE
  5
2B7
102
{ACAD_REACTORS
330
298
102
}
330
298
100
AcDbScale
 70
     0
300
3" = 1'-0"
140
3.0
141
12.0
290
     0
  0
SCALE
  5
2B8
102
{ACAD_REACTORS
330
298
102
}
330
298
100
AcDbScale
 70
     0
300
6" = 1'-0"
140
6.0
141
12.0
290
     0
  0
SCALE
  5
2B9
102
{ACAD_REACTORS
330
298
102
}
330
298
100
AcDbScale
 70
     0
300
1'-0" = 1'-0"
140
12.0
141
12.0
290
     0
  0
ACDBSECTIONVIEWSTYLE
  5
32F
102
{ACAD_REACTORS
330
32E
102
}
330
32E
100
AcDbModelDocViewStyle
 70
     0
  3
Metric50
290
     0
100
AcDbSectionViewStyle
 70
     0
 71
     0
 90
      102
 71
     1
340
11
 62
   256
 40
5.0
340
0
340
0
 62
   256
 40
5.0
300
I, O, Q, S, X, Z
 40
10.0
 90
        0
 40
2.5
 90
        0
 71
     2
340
16
 90
       25
 62
   256
340
16
 90
       50
 62
   256
 40
5.0
 40
2.5
 40
5.0
 71
     3
340
11
 62
   256
 40
5.0
 90
        0
 40
15.0
 90
        1
300
%<\AcVar ViewSectionStartId>%-%<\AcVar ViewSectionEndId>% (%<\AcVar ViewScale \f "%sn">%)
 71
     4
 62
   256
 62
   257
300
ANSI31
 40
1.0
 90
        0
290
     0
290
     0
 90
        6
 40
0.0
 40
1.570796326794896
 40
0.2617993877991494
 40
1.308996938995747
 40
-0.2617993877991494
 40
1.832595714594045
  0
TABLESTYLE
  5
32B
102
{ACAD_XDICTIONARY
360
36C
102
}
102
{ACAD_REACTORS
330
32A
102
}
330
32A
100
AcDbTableStyle
280
     0
  3
Standard
 70
     0
 71
     0
 40
1.5
 41
1.5
280
     0
281
     0
  7
Standard
140
4.5
170
     2
 62
     0
 63
     7
283
     0
 90
      512
 91
        0
  1

274
    -2
284
     1
 64
     0
275
    -2
285
     1
 65
     0
276
    -2
286
     1
 66
     0
277
    -2
287
     1
 67
     0
278
    -2
288
     1
 68
     0
279
    -2
289
     1
 69
     0
  7
Standard
140
6.0
170
     5
 62
     0
 63
     7
283
     0
 90
      512
 91
        0
  1

274
    -2
284
     1
 64
     0
275
    -2
285
     1
 65
     0
276
    -2
286
     1
 66
     0
277
    -2
287
     1
 67
     0
278
    -2
288
     1
 68
     0
279
    -2
289
     1
 69
     0
  7
Standard
140
4.5
170
     5
 62
     0
 63
     7
283
     0
 90
      512
 91
        0
  1

274
    -2
284
     1
 64
     0
275
    -2
285
     1
 65
     0
276
    -2
286
     1
 66
     0
277
    -2
287
     1
 67
     0
278
    -2
288
     1
 68
     0
279
    -2
289
     1
 69
     0
  0
VISUALSTYLE
  5
316
102
{ACAD_XDICTIONARY
360
50E6
102
}
102
{ACAD_REACTORS
330
310
102
}
330
310
100
AcDbVisualStyle
  2
2dWireframe
 70
     4
177
     2
291
     0
 71
     0
176
     1
 72
     2
176
     1
 73
     0
176
     1
 90
        0
176
     1
 40
0.6
176
     1
 41
30.0
176
     1
 63
     7
421
 16777215
176
     1
 74
     1
176
     1
 91
        4
176
     1
 64
     7
176
     1
 65
   257
176
     1
 75
     1
176
     1
175
     1
176
     1
 42
1.0
176
     1
 92
        0
176
     1
 66
   257
176
     1
 43
1.0
176
     1
 76
     1
176
     1
 77
     6
176
     1
 78
     2
176
     1
 67
     7
176
     1
 79
     5
176
     1
170
     0
176
     1
171
     0
176
     1
290
     0
176
     1
 93
        1
176
     1
 44
0.0
176
     1
173
     0
176
     1
1001
ACAD
1000
AcDbSavedByObjectVersion
1070
     0
  0
VISUALSTYLE
  5
315
102
{ACAD_XDICTIONARY
360
50E4
102
}
102
{ACAD_REACTORS
330
310
102
}
330
310
100
AcDbVisualStyle
  2
Basic
 70
     7
177
     2
291
     1
 71
     1
176
     1
 72
     0
176
     1
 73
     1
176
     1
 90
        0
176
     1
 40
0.6
176
     1
 41
30.0
176
     1
 63
     7
421
 16777215
176
     1
 74
     0
176
     1
 91
        4
176
     1
 64
     7
176
     1
 65
   257
176
     1
 75
     1
176
     1
175
     1
176
     1
 42
1.0
176
     1
 92
        8
176
     1
 66
     7
176
     1
 43
1.0
176
     1
 76
     1
176
     1
 77
     6
176
     1
 78
     2
176
     1
 67
     7
176
     1
 79
     5
176
     1
170
     0
176
     1
171
     0
176
     1
290
     0
176
     1
 93
        1
176
     1
 44
0.0
176
     1
173
     0
176
     1
1001
ACAD
1000
AcDbSavedByObjectVersion
1070
     0
  0
VISUALSTYLE
  5
31C
102
{ACAD_XDICTIONARY
360
50F2
102
}
102
{ACAD_REACTORS
330
310
102
}
330
310
100
AcDbVisualStyle
  2
Brighten
 70
    12
177
     2
291
     1
 71
     2
176
     1
 72
     2
176
     1
 73
     0
176
     1
 90
        0
176
     1
 40
0.6
176
     1
 41
30.0
176
     1
 63
     7
421
 16777215
176
     1
 74
     1
176
     1
 91
        4
176
     1
 64
     7
176
     1
 65
   257
176
     1
 75
     1
176
     1
175
     1
176
     1
 42
1.0
176
     1
 92
        8
176
     1
 66
     7
176
     1
 43
1.0
176
     1
 76
     1
176
     1
 77
     6
176
     1
 78
     2
176
     1
 67
     7
176
     1
 79
     5
176
     1
170
     0
176
     1
171
     0
176
     1
290
     0
176
     1
 93
        1
176
     1
 44
50.0
176
     1
173
     0
176
     1
1001
ACAD
1000
AcDbSavedByObjectVersion
1070
     0
  0
VISUALSTYLE
  5
320
102
{ACAD_XDICTIONARY
360
50FA
102
}
102
{ACAD_REACTORS
330
310
102
}
330
310
100
AcDbVisualStyle
  2
ColorChange
 70
    16
177
     2
291
     1
 71
     2
176
     1
 72
     2
176
     1
 73
     3
176
     1
 90
        0
176
     1
 40
0.6
176
     1
 41
30.0
176
     1
 63
     8
421
  8421504
176
     1
 74
     1
176
     1
 91
        4
176
     1
 64
     7
176
     1
 65
   257
176
     1
 75
     1
176
     1
175
     1
176
     1
 42
1.0
176
     1
 92
        8
176
     1
 66
     8
424
  8421504
176
     1
 43
1.0
176
     1
 76
     1
176
     1
 77
     6
176
     1
 78
     2
176
     1
 67
     7
176
     1
 79
     5
176
     1
170
     0
176
     1
171
     0
176
     1
290
     0
176
     1
 93
        1
176
     1
 44
0.0
176
     1
173
     0
176
     1
1001
ACAD
1000
AcDbSavedByObjectVersion
1070
     0
  0
VISUALSTYLE
  5
319
102
{ACAD_XDICTIONARY
360
50EC
102
}
102
{ACAD_REACTORS
330
310
102
}
330
310
100
AcDbVisualStyle
  2
Conceptual
 70
     9
177
     2
291
     0
 71
     3
176
     1
 72
     2
176
     1
 73
     0
176
     1
 90
        0
176
     1
 40
0.6
176
     1
 41
30.0
176
     1
 63
     7
421
 16777215
176
     1
 74
     2
176
     1
 91
        2
176
     1
 64
     7
176
     1
 65
   257
176
     1
 75
     1
176
     1
175
     1
176
     1
 42
179.0
176
     1
 92
        8
176
     1
 66
     7
176
     1
 43
1.0
176
     1
 76
     1
176
     1
 77
     6
176
     1
 78
     2
176
     1
 67
     7
176
     1
 79
     3
176
     1
170
     0
176
     1
171
     0
176
     1
290
     0
176
     1
 93
        1
176
     1
 44
0.0
176
     1
173
     0
176
     1
1001
ACAD
1000
AcDbSavedByObjectVersion
1070
     0
  0
VISUALSTYLE
  5
31B
102
{ACAD_XDICTIONARY
360
50F0
102
}
102
{ACAD_REACTORS
330
310
102
}
330
310
100
AcDbVisualStyle
  2
Dim
 70
    11
177
     2
291
     1
 71
     2
176
     1
 72
     2
176
     1
 73
     0
176
     1
 90
        0
176
     1
 40
0.6
176
     1
 41
30.0
176
     1
 63
     7
421
 16777215
176
     1
 74
     1
176
     1
 91
        4
176
     1
 64
     7
176
     1
 65
   257
176
     1
 75
     1
176
     1
175
     1
176
     1
 42
1.0
176
     1
 92
        8
176
     1
 66
     7
176
     1
 43
1.0
176
     1
 76
     1
176
     1
 77
     6
176
     1
 78
     2
176
     1
 67
     7
176
     1
 79
     5
176
     1
170
     0
176
     1
171
     0
176
     1
290
     0
176
     1
 93
        1
176
     1
 44
-50.0
176
     1
173
     0
176
     1
1001
ACAD
1000
AcDbSavedByObjectVersion
1070
     0
  0
VISUALSTYLE
  5
328
102
{ACAD_XDICTIONARY
360
510A
102
}
102
{ACAD_REACTORS
330
310
102
}
330
310
100
AcDbVisualStyle
  2
EdgeColorOff
 70
    22
177
     2
291
     1
 71
     2
176
     0
 72
     2
176
     0
 73
     0
176
     0
 90
        0
176
     0
 40
0.6
176
     0
 41
30.0
176
     0
 63
     7
421
 16777215
176
     0
 74
     1
176
     0
 91
        4
176
     0
 64
     7
176
     0
 65
   257
176
     0
 75
     1
176
     0
175
     1
176
     0
 42
1.0
176
     0
 92
        8
176
     2
 66
     7
176
     0
 43
1.0
176
     0
 76
     1
176
     0
 77
     6
176
     0
 78
     2
176
     0
 67
     7
176
     0
 79
     5
176
     0
170
     0
176
     0
171
     0
176
     0
290
     0
176
     0
 93
        1
176
     0
 44
0.0
176
     0
173
     0
176
     0
1001
ACAD
1000
AcDbSavedByObjectVersion
1070
     0
  0
VISUALSTYLE
  5
31F
102
{ACAD_XDICTIONARY
360
50F8
102
}
102
{ACAD_REACTORS
330
310
102
}
330
310
100
AcDbVisualStyle
  2
Facepattern
 70
    15
177
     2
291
     1
 71
     2
176
     1
 72
     2
176
     1
 73
     0
176
     1
 90
        0
176
     1
 40
0.6
176
     1
 41
30.0
176
     1
 63
     7
421
 16777215
176
     1
 74
     1
176
     1
 91
        4
176
     1
 64
     7
176
     1
 65
   257
176
     1
 75
     1
176
     1
175
     1
176
     1
 42
1.0
176
     1
 92
        8
176
     1
 66
     7
176
     1
 43
1.0
176
     1
 76
     1
176
     1
 77
     6
176
     1
 78
     2
176
     1
 67
     7
176
     1
 79
     5
176
     1
170
     0
176
     1
171
     0
176
     1
290
     0
176
     1
 93
        1
176
     1
 44
0.0
176
     1
173
     0
176
     1
1001
ACAD
1000
AcDbSavedByObjectVersion
1070
     0
  0
VISUALSTYLE
  5
311
102
{ACAD_XDICTIONARY
360
50DC
102
}
102
{ACAD_REACTORS
330
310
102
}
330
310
100
AcDbVisualStyle
  2
Flat
 70
     0
177
     2
291
     1
 71
     2
176
     1
 72
     1
176
     1
 73
     1
176
     1
 90
        2
176
     1
 40
0.6
176
     1
 41
30.0
176
     1
 63
     7
421
 16777215
176
     1
 74
     0
176
     1
 91
        0
176
     1
 64
     7
176
     1
 65
   257
176
     1
 75
     1
176
     1
175
     1
176
     1
 42
1.0
176
     1
 92
        8
176
     1
 66
     7
176
     1
 43
1.0
176
     1
 76
     1
176
     1
 77
     6
176
     1
 78
     2
176
     1
 67
     7
176
     1
 79
     5
176
     1
170
     0
176
     1
171
     0
176
     1
290
     0
176
     1
 93
       13
176
     1
 44
0.0
176
     1
173
     0
176
     1
1001
ACAD
1000
AcDbSavedByObjectVersion
1070
     0
  0
VISUALSTYLE
  5
312
102
{ACAD_XDICTIONARY
360
50DE
102
}
102
{ACAD_REACTORS
330
310
102
}
330
310
100
AcDbVisualStyle
  2
FlatWithEdges
 70
     1
177
     2
291
     1
 71
     2
176
     1
 72
     1
176
     1
 73
     1
176
     1
 90
        2
176
     1
 40
0.6
176
     1
 41
30.0
176
     1
 63
     7
421
 16777215
176
     1
 74
     1
176
     1
 91
        0
176
     1
 64
     7
176
     1
 65
   257
176
     1
 75
     1
176
     1
175
     1
176
     1
 42
1.0
176
     1
 92
        0
176
     1
 66
   257
176
     1
 43
1.0
176
     1
 76
     1
176
     1
 77
     6
176
     1
 78
     2
176
     1
 67
     7
176
     1
 79
     5
176
     1
170
     0
176
     1
171
     0
176
     1
290
     0
176
     1
 93
       13
176
     1
 44
0.0
176
     1
173
     0
176
     1
1001
ACAD
1000
AcDbSavedByObjectVersion
1070
     0
  0
VISUALSTYLE
  5
313
102
{ACAD_XDICTIONARY
360
50E0
102
}
102
{ACAD_REACTORS
330
310
102
}
330
310
100
AcDbVisualStyle
  2
Gouraud
 70
     2
177
     2
291
     1
 71
     2
176
     1
 72
     2
176
     1
 73
     1
176
     1
 90
        2
176
     1
 40
0.6
176
     1
 41
30.0
176
     1
 63
     7
421
 16777215
176
     1
 74
     0
176
     1
 91
        0
176
     1
 64
     7
176
     1
 65
   257
176
     1
 75
     1
176
     1
175
     1
176
     1
 42
1.0
176
     1
 92
        0
176
     1
 66
     7
176
     1
 43
1.0
176
     1
 76
     1
176
     1
 77
     6
176
     1
 78
     2
176
     1
 67
     7
176
     1
 79
     5
176
     1
170
     0
176
     1
171
     0
176
     1
290
     0
176
     1
 93
       13
176
     1
 44
0.0
176
     1
173
     0
176
     1
1001
ACAD
1000
AcDbSavedByObjectVersion
1070
     0
  0
VISUALSTYLE
  5
314
102
{ACAD_XDICTIONARY
360
50E2
102
}
102
{ACAD_REACTORS
330
310
102
}
330
310
100
AcDbVisualStyle
  2
GouraudWithEdges
 70
     3
177
     2
291
     1
 71
     2
176
     1
 72
     2
176
     1
 73
     1
176
     1
 90
        2
176
     1
 40
0.6
176
     1
 41
30.0
176
     1
 63
     7
421
 16777215
176
     1
 74
     1
176
     1
 91
        0
176
     1
 64
     7
176
     1
 65
   257
176
     1
 75
     1
176
     1
175
     1
176
     1
 42
1.0
176
     1
 92
        0
176
     1
 66
   257
176
     1
 43
1.0
176
     1
 76
     1
176
     1
 77
     6
176
     1
 78
     2
176
     1
 67
     7
176
     1
 79
     5
176
     1
170
     0
176
     1
171
     0
176
     1
290
     0
176
     1
 93
       13
176
     1
 44
0.0
176
     1
173
     0
176
     1
1001
ACAD
1000
AcDbSavedByObjectVersion
1070
     0
  0
VISUALSTYLE
  5
318
102
{ACAD_XDICTIONARY
360
50EA
102
}
102
{ACAD_REACTORS
330
310
102
}
330
310
100
AcDbVisualStyle
  2
Hidden
 70
     6
177
     2
291
     0
 71
     1
176
     1
 72
     2
176
     1
 73
     2
176
     1
 90
        0
176
     1
 40
0.6
176
     1
 41
30.0
176
     1
 63
     7
421
 16777215
176
     1
 74
     2
176
     1
 91
        2
176
     1
 64
     7
176
     1
 65
   257
176
     1
 75
     2
176
     1
175
     1
176
     1
 42
40.0
176
     1
 92
        0
176
     1
 66
   257
176
     1
 43
1.0
176
     1
 76
     1
176
     1
 77
     6
176
     1
 78
     2
176
     1
 67
     7
176
     1
 79
     3
176
     1
170
     0
176
     1
171
     0
176
     1
290
     0
176
     1
 93
        1
176
     1
 44
0.0
176
     1
173
     0
176
     1
1001
ACAD
1000
AcDbSavedByObjectVersion
1070
     0
  0
VISUALSTYLE
  5
326
102
{ACAD_XDICTIONARY
360
5106
102
}
102
{ACAD_REACTORS
330
310
102
}
330
310
100
AcDbVisualStyle
  2
JitterOff
 70
    20
177
     2
291
     1
 71
     2
176
     0
 72
     2
176
     0
 73
     0
176
     0
 90
        0
176
     0
 40
0.6
176
     0
 41
30.0
176
     0
 63
     7
421
 16777215
176
     0
 74
     1
176
     0
 91
        4
176
     0
 64
     7
176
     0
 65
   257
176
     0
 75
     1
176
     0
175
     1
176
     0
 42
1.0
176
     0
 92
       10
176
     2
 66
     7
176
     0
 43
1.0
176
     0
 76
     1
176
     0
 77
     6
176
     0
 78
     2
176
     0
 67
     7
176
     0
 79
     5
176
     0
170
     0
176
     0
171
     0
176
     0
290
     0
176
     0
 93
        1
176
     0
 44
0.0
176
     0
173
     0
176
     0
1001
ACAD
1000
AcDbSavedByObjectVersion
1070
     0
  0
VISUALSTYLE
  5
31E
102
{ACAD_XDICTIONARY
360
50F6
102
}
102
{ACAD_REACTORS
330
310
102
}
330
310
100
AcDbVisualStyle
  2
Linepattern
 70
    14
177
     2
291
     1
 71
     2
176
     1
 72
     2
176
     1
 73
     0
176
     1
 90
        0
176
     1
 40
0.6
176
     1
 41
30.0
176
     1
 63
     7
421
 16777215
176
     1
 74
     1
176
     1
 91
        4
176
     1
 64
     7
176
     1
 65
   257
176
     1
 75
     7
176
     1
175
     7
176
     1
 42
1.0
176
     1
 92
        8
176
     1
 66
     7
176
     1
 43
1.0
176
     1
 76
     1
176
     1
 77
     6
176
     1
 78
     2
176
     1
 67
     7
176
     1
 79
     5
176
     1
170
     0
176
     1
171
     0
176
     1
290
     0
176
     1
 93
        1
176
     1
 44
0.0
176
     1
173
     0
176
     1
1001
ACAD
1000
AcDbSavedByObjectVersion
1070
     0
  0
VISUALSTYLE
  5
327
102
{ACAD_XDICTIONARY
360
5108
102
}
102
{ACAD_REACTORS
330
310
102
}
330
310
100
AcDbVisualStyle
  2
OverhangOff
 70
    21
177
     2
291
     1
 71
     2
176
     0
 72
     2
176
     0
 73
     0
176
     0
 90
        0
176
     0
 40
0.6
176
     0
 41
30.0
176
     0
 63
     7
421
 16777215
176
     0
 74
     1
176
     0
 91
        4
176
     0
 64
     7
176
     0
 65
   257
176
     0
 75
     1
176
     0
175
     1
176
     0
 42
1.0
176
     0
 92
        9
176
     2
 66
     7
176
     0
 43
1.0
176
     0
 76
     1
176
     0
 77
     6
176
     0
 78
     2
176
     0
 67
     7
176
     0
 79
     5
176
     0
170
     0
176
     0
171
     0
176
     0
290
     0
176
     0
 93
        1
176
     0
 44
0.0
176
     0
173
     0
176
     0
1001
ACAD
1000
AcDbSavedByObjectVersion
1070
     0
  0
VISUALSTYLE
  5
31A
102
{ACAD_XDICTIONARY
360
50EE
102
}
102
{ACAD_REACTORS
330
310
102
}
330
310
100
AcDbVisualStyle
  2
Realistic
 70
     8
177
     2
291
     0
 71
     2
176
     1
 72
     3
176
     1
 73
     0
176
     1
 90
        2
176
     1
 40
0.6
176
     1
 41
30.0
176
     1
 63
     7
421
 16777215
176
     1
 74
     0
176
     1
 91
        0
176
     1
 64
     7
176
     1
 65
   257
176
     1
 75
     1
176
     1
175
     1
176
     1
 42
1.0
176
     1
 92
        8
176
     1
 66
   257
176
     1
 43
1.0
176
     1
 76
     1
176
     1
 77
     6
176
     1
 78
     2
176
     1
 67
     7
176
     1
 79
     3
176
     1
170
     0
176
     1
171
     0
176
     1
290
     0
176
     1
 93
       13
176
     1
 44
0.0
176
     1
173
     0
176
     1
1001
ACAD
1000
AcDbSavedByObjectVersion
1070
     0
  0
VISUALSTYLE
  5
325
102
{ACAD_XDICTIONARY
360
5104
102
}
102
{ACAD_REACTORS
330
310
102
}
330
310
100
AcDbVisualStyle
  2
Shaded
 70
    27
177
     2
291
     0
 71
     2
176
     1
 72
     2
176
     1
 73
     1
176
     1
 90
        2
176
     1
 40
0.6
176
     1
 41
30.0
176
     1
 63
     7
421
 16777215
176
     1
 74
     0
176
     1
 91
        4
176
     1
 64
     7
176
     1
 65
   257
176
     1
 75
     1
176
     1
175
     1
176
     1
 42
1.0
176
     1
 92
        8
176
     1
 66
   257
176
     1
 43
1.0
176
     1
 76
     1
176
     1
 77
     6
176
     1
 78
     2
176
     1
 67
     8
425
  7895160
176
     1
 79
     3
176
     1
170
     0
176
     1
171
     0
176
     1
290
     0
176
     1
 93
        5
176
     1
 44
0.0
176
     1
173
     0
176
     1
1001
ACAD
1000
AcDbSavedByObjectVersion
1070
     0
  0
VISUALSTYLE
  5
324
102
{ACAD_XDICTIONARY
360
5102
102
}
102
{ACAD_REACTORS
330
310
102
}
330
310
100
AcDbVisualStyle
  2
Shaded with edges
 70
    26
177
     2
291
     0
 71
     2
176
     1
 72
     2
176
     1
 73
     1
176
     1
 90
        2
176
     1
 40
0.6
176
     1
 41
30.0
176
     1
 63
     7
421
 16777215
176
     1
 74
     1
176
     1
 91
       10
176
     1
 64
     7
176
     1
 65
   257
176
     1
 75
     2
176
     1
175
     1
176
     1
 42
1.0
176
     1
 92
        8
176
     1
 66
   257
176
     1
 43
1.0
176
     1
 76
     1
176
     1
 77
     6
176
     1
 78
     2
176
     1
 67
     7
176
     1
 79
     3
176
     1
170
     0
176
     1
171
     0
176
     1
290
     0
176
     1
 93
        5
176
     1
 44
0.0
176
     1
173
     0
176
     1
1001
ACAD
1000
AcDbSavedByObjectVersion
1070
     0
  0
VISUALSTYLE
  5
321
102
{ACAD_XDICTIONARY
360
50FC
102
}
102
{ACAD_REACTORS
330
310
102
}
330
310
100
AcDbVisualStyle
  2
Shades of Gray
 70
    23
177
     2
291
     0
 71
     2
176
     1
 72
     2
176
     1
 73
     3
176
     1
 90
        0
176
     1
 40
0.6
176
     1
 41
30.0
176
     1
 63
     7
421
 16777215
176
     1
 74
     2
176
     1
 91
        2
176
     1
 64
     7
176
     1
 65
     7
176
     1
 75
     1
176
     1
175
     1
176
     1
 42
40.0
176
     1
 92
        8
176
     1
 66
     7
176
     1
 43
1.0
176
     1
 76
     1
176
     1
 77
     6
176
     1
 78
     2
176
     1
 67
     7
176
     1
 79
     3
176
     1
170
     0
176
     1
171
     0
176
     1
290
     0
176
     1
 93
        1
176
     1
 44
0.0
176
     1
173
     0
176
     1
1001
ACAD
1000
AcDbSavedByObjectVersion
1070
     0
  0
VISUALSTYLE
  5
322
102
{ACAD_XDICTIONARY
360
50FE
102
}
102
{ACAD_REACTORS
330
310
102
}
330
310
100
AcDbVisualStyle
  2
Sketchy
 70
    24
177
     2
291
     0
 71
     1
176
     1
 72
     2
176
     1
 73
     2
176
     1
 90
        0
176
     1
 40
0.6
176
     1
 41
30.0
176
     1
 63
     7
421
 16777215
176
     1
 74
     2
176
     1
 91
        2
176
     1
 64
     7
176
     1
 65
     7
176
     1
 75
     1
176
     1
175
     1
176
     1
 42
40.0
176
     1
 92
       11
176
     1
 66
     7
176
     1
 43
1.0
176
     1
 76
     1
176
     1
 77
     6
176
     1
 78
     2
176
     1
 67
     7
176
     1
 79
     6
176
     1
170
     0
176
     1
171
     0
176
     1
290
     0
176
     1
 93
        1
176
     1
 44
0.0
176
     1
173
     0
176
     1
1001
ACAD
1000
AcDbSavedByObjectVersion
1070
     0
  0
VISUALSTYLE
  5
31D
102
{ACAD_XDICTIONARY
360
50F4
102
}
102
{ACAD_REACTORS
330
310
102
}
330
310
100
AcDbVisualStyle
  2
Thicken
 70
    13
177
     2
291
     1
 71
     2
176
     1
 72
     2
176
     1
 73
     0
176
     1
 90
        0
176
     1
 40
0.6
176
     1
 41
30.0
176
     1
 63
     7
421
 16777215
176
     1
 74
     1
176
     1
 91
        4
176
     1
 64
     7
176
     1
 65
   257
176
     1
 75
     1
176
     1
175
     1
176
     1
 42
1.0
176
     1
 92
       12
176
     1
 66
     7
176
     1
 43
1.0
176
     1
 76
     1
176
     1
 77
     6
176
     1
 78
     2
176
     1
 67
     7
176
     1
 79
     5
176
     1
170
     0
176
     1
171
     0
176
     1
290
     0
176
     1
 93
        1
176
     1
 44
0.0
176
     1
173
     0
176
     1
1001
ACAD
1000
AcDbSavedByObjectVersion
1070
     0
  0
VISUALSTYLE
  5
317
102
{ACAD_XDICTIONARY
360
50E8
102
}
102
{ACAD_REACTORS
330
310
102
}
330
310
100
AcDbVisualStyle
  2
Wireframe
 70
     5
177
     2
291
     0
 71
     0
176
     1
 72
     2
176
     1
 73
     0
176
     1
 90
        0
176
     1
 40
0.6
176
     1
 41
30.0
176
     1
 63
     7
421
 16777215
176
     1
 74
     1
176
     1
 91
        4
176
     1
 64
     7
176
     1
 65
   257
176
     1
 75
     1
176
     1
175
     1
176
     1
 42
1.0
176
     1
 92
        0
176
     1
 66
   257
176
     1
 43
1.0
176
     1
 76
     1
176
     1
 77
     6
176
     1
 78
     2
176
     1
 67
     7
176
     1
 79
     3
176
     1
170
     0
176
     1
171
     0
176
     1
290
     0
176
     1
 93
        1
176
     1
 44
0.0
176
     1
173
     0
176
     1
1001
ACAD
1000
AcDbSavedByObjectVersion
1070
     0
  0
VISUALSTYLE
  5
323
102
{ACAD_XDICTIONARY
360
5100
102
}
102
{ACAD_REACTORS
330
310
102
}
330
310
100
AcDbVisualStyle
  2
X-Ray
 70
    25
177
     2
291
     0
 71
     2
176
     1
 72
     2
176
     1
 73
     1
176
     1
 90
        1
176
     1
 40
0.5
176
     1
 41
30.0
176
     1
 63
     7
421
 16777215
176
     1
 74
     1
176
     1
 91
        0
176
     1
 64
     7
176
     1
 65
   257
176
     1
 75
     1
176
     1
175
     1
176
     1
 42
1.0
176
     1
 92
        8
176
     1
 66
     7
176
     1
 43
1.0
176
     1
 76
     1
176
     1
 77
     6
176
     1
 78
     2
176
     1
 67
     7
176
     1
 79
     3
176
     1
170
     0
176
     1
171
     0
176
     1
290
     0
176
     1
 93
       13
176
     1
 44
0.0
176
     1
173
     0
176
     1
1001
ACAD
1000
AcDbSavedByObjectVersion
1070
     0
  0
DICTIONARYVAR
  5
2F4
102
{ACAD_REACTORS
330
2EC
102
}
330
2EC
100
DictionaryVariables
280
     0
  1
1:1
  0
DICTIONARYVAR
  5
365
102
{ACAD_REACTORS
330
2EC
102
}
330
2EC
100
DictionaryVariables
280
     0
  1
STANDARD
  0
DICTIONARYVAR
  5
364
102
{ACAD_REACTORS
330
2EC
102
}
330
2EC
100
DictionaryVariables
280
     0
  1
STANDARD
  0
DICTIONARYVAR
  5
366
102
{ACAD_REACTORS
330
2EC
102
}
330
2EC
100
DictionaryVariables
280
     0
  1
Metric50
  0
DICTIONARYVAR
  5
367
102
{ACAD_REACTORS
330
2EC
102
}
330
2EC
100
DictionaryVariables
280
     0
  1
Metric50
  0
DICTIONARYVAR
  5
36A
102
{ACAD_REACTORS
330
2EC
102
}
330
2EC
100
DictionaryVariables
280
     0
  1
1
  0
DICTIONARYVAR
  5
36B
102
{ACAD_REACTORS
330
2EC
102
}
330
2EC
100
DictionaryVariables
280
     0
  1
15
  0
DICTIONARYVAR
  5
369
102
{ACAD_REACTORS
330
2EC
102
}
330
2EC
100
DictionaryVariables
280
     0
  1
0
  0
DICTIONARYVAR
  5
368
102
{ACAD_REACTORS
330
2EC
102
}
330
2EC
100
DictionaryVariables
280
     0
  1
0
  0
DICTIONARY
  5
50DB
102
{ACAD_REACTORS
330
50D9
102
}
330
50D9
100
AcDbDictionary
281
     1
  0
DICTIONARY
  5
50DA
102
{ACAD_REACTORS
330
50D9
102
}
330
50D9
100
AcDbDictionary
281
     1
  3
8796087824064
350
50D4
  3
8796087824080
350
50D5
  3
8796087824096
350
50D6
  3
8796087824112
350
50D7
  3
8796087824128
350
50D8
  0
XRECORD
  5
2D6
102
{ACAD_REACTORS
330
2D5
102
}
330
2D5
100
AcDbXrecord
280
     1
 91
     1023
301

290
     0
302
0
330
10
 90
        8
 62
     7
370
    -3
331
16
  1
Color_7
330
0
 90
        8
 62
     7
370
    -3
331
16
  1
Color_7
330
0
 90
        0
 62
     7
370
    -3
331
16
  1
Color_7
  0
XRECORD
  5
2E7
102
{ACAD_REACTORS
330
2D5
102
}
330
2D5
100
AcDbXrecord
280
     1
 91
     1023
301

290
     0
302
0
330
10
 90
        8
 62
     7
370
    -3
331
16
  1
Color_7
330
0
 90
        8
 62
     7
370
    -3
331
16
  1
Color_7
330
0
 90
        0
 62
     7
370
    -3
331
16
  1
Color_7
330
2D7
 90
        9
 62
     7
370
    -3
331
16
  1
Color_7
  0
DICTIONARY
  5
5095
102
{ACAD_REACTORS
330
5094
102
}
330
5094
100
AcDbDictionary
281
     1
  0
DICTIONARY
  5
301
330
300
100
AcDbDictionary
280
     1
281
     1
  3
BUMPTILE
360
303
  3
DIFFUSETILE
360
302
  3
OPACITYTILE
360
306
  3
REFLECTIONTILE
360
305
  3
REFRACTIONTILE
360
307
  3
SPECULARTILE
360
304
  0
DICTIONARY
  5
2F9
330
2F8
100
AcDbDictionary
280
     1
281
     1
  3
BUMPTILE
360
2FB
  3
DIFFUSETILE
360
2FA
  3
OPACITYTILE
360
2FE
  3
REFLECTIONTILE
360
2FD
  3
REFRACTIONTILE
360
2FF
  3
SPECULARTILE
360
2FC
  0
DICTIONARY
  5
309
330
308
100
AcDbDictionary
280
     1
281
     1
  3
BUMPTILE
360
30B
  3
DIFFUSETILE
360
30A
  3
OPACITYTILE
360
30E
  3
REFLECTIONTILE
360
30D
  3
REFRACTIONTILE
360
30F
  3
SPECULARTILE
360
30C
  0
DICTIONARY
  5
36C
330
32B
100
AcDbDictionary
280
     1
281
     1
  3
ACAD_ROUNDTRIP_2008_TABLESTYLE_CELLSTYLEMAP
360
50D2
  0
DICTIONARY
  5
50E6
330
316
100
AcDbDictionary
280
     1
281
     1
  3
ACAD_XREC_ROUNDTRIP
360
50E7
  0
DICTIONARY
  5
50E4
330
315
100
AcDbDictionary
280
     1
281
     1
  3
ACAD_XREC_ROUNDTRIP
360
50E5
  0
DICTIONARY
  5
50F2
330
31C
100
AcDbDictionary
280
     1
281
     1
  3
ACAD_XREC_ROUNDTRIP
360
50F3
  0
DICTIONARY
  5
50FA
330
320
100
AcDbDictionary
280
     1
281
     1
  3
ACAD_XREC_ROUNDTRIP
360
50FB
  0
DICTIONARY
  5
50EC
330
319
100
AcDbDictionary
280
     1
281
     1
  3
ACAD_XREC_ROUNDTRIP
360
50ED
  0
DICTIONARY
  5
50F0
330
31B
100
AcDbDictionary
280
     1
281
     1
  3
ACAD_XREC_ROUNDTRIP
360
50F1
  0
DICTIONARY
  5
510A
330
328
100
AcDbDictionary
280
     1
281
     1
  3
ACAD_XREC_ROUNDTRIP
360
510B
  0
DICTIONARY
  5
50F8
330
31F
100
AcDbDictionary
280
     1
281
     1
  3
ACAD_XREC_ROUNDTRIP
360
50F9
  0
DICTIONARY
  5
50DC
330
311
100
AcDbDictionary
280
     1
281
     1
  3
ACAD_XREC_ROUNDTRIP
360
50DD
  0
DICTIONARY
  5
50DE
330
312
100
AcDbDictionary
280
     1
281
     1
  3
ACAD_XREC_ROUNDTRIP
360
50DF
  0
DICTIONARY
  5
50E0
330
313
100
AcDbDictionary
280
     1
281
     1
  3
ACAD_XREC_ROUNDTRIP
360
50E1
  0
DICTIONARY
  5
50E2
330
314
100
AcDbDictionary
280
     1
281
     1
  3
ACAD_XREC_ROUNDTRIP
360
50E3
  0
DICTIONARY
  5
50EA
330
318
100
AcDbDictionary
280
     1
281
     1
  3
ACAD_XREC_ROUNDTRIP
360
50EB
  0
DICTIONARY
  5
5106
330
326
100
AcDbDictionary
280
     1
281
     1
  3
ACAD_XREC_ROUNDTRIP
360
5107
  0
DICTIONARY
  5
50F6
330
31E
100
AcDbDictionary
280
     1
281
     1
  3
ACAD_XREC_ROUNDTRIP
360
50F7
  0
DICTIONARY
  5
5108
330
327
100
AcDbDictionary
280
     1
281
     1
  3
ACAD_XREC_ROUNDTRIP
360
5109
  0
DICTIONARY
  5
50EE
330
31A
100
AcDbDictionary
280
     1
281
     1
  3
ACAD_XREC_ROUNDTRIP
360
50EF
  0
DICTIONARY
  5
5104
330
325
100
AcDbDictionary
280
     1
281
     1
  3
ACAD_XREC_ROUNDTRIP
360
5105
  0
DICTIONARY
  5
5102
330
324
100
AcDbDictionary
280
     1
281
     1
  3
ACAD_XREC_ROUNDTRIP
360
5103
  0
DICTIONARY
  5
50FC
330
321
100
AcDbDictionary
280
     1
281
     1
  3
ACAD_XREC_ROUNDTRIP
360
50FD
  0
DICTIONARY
  5
50FE
330
322
100
AcDbDictionary
280
     1
281
     1
  3
ACAD_XREC_ROUNDTRIP
360
50FF
  0
DICTIONARY
  5
50F4
330
31D
100
AcDbDictionary
280
     1
281
     1
  3
ACAD_XREC_ROUNDTRIP
360
50F5
  0
DICTIONARY
  5
50E8
330
317
100
AcDbDictionary
280
     1
281
     1
  3
ACAD_XREC_ROUNDTRIP
360
50E9
  0
DICTIONARY
  5
5100
330
323
100
AcDbDictionary
280
     1
281
     1
  3
ACAD_XREC_ROUNDTRIP
360
5101
  0
XRECORD
  5
50D4
102
{ACAD_REACTORS
330
50DA
102
}
330
50DA
100
AcDbXrecord
280
     1
  1
AcDb_Thumbnail_Schema
102
{ATTRRECORD
341
50D5
  2
AcDbDs::TreatedAsObjectData
280
     1
291
     1
102
ATTRRECORD}
102
{ATTRRECORD
341
50D6
  2
AcDbDs::Legacy
280
     1
291
     1
102
ATTRRECORD}
  2
AcDbDs::ID
280
    10
 91
        8
102
{ATTRRECORD
341
50D7
  2
AcDs:Indexable
280
     1
291
     1
102
ATTRRECORD}
102
{ATTRRECORD
341
50D8
  2
AcDbDs::HandleAttribute
280
     7
282
     1
102
ATTRRECORD}
  2
Thumbnail_Data
280
    15
 91
        0
  0
XRECORD
  5
50D5
102
{ACAD_REACTORS
330
50DA
102
}
330
50DA
100
AcDbXrecord
280
     1
  1
AcDbDs::TreatedAsObjectDataSchema
  2
AcDbDs::TreatedAsObjectData
280
     1
 91
        0
  0
XRECORD
  5
50D6
102
{ACAD_REACTORS
330
50DA
102
}
330
50DA
100
AcDbXrecord
280
     1
  1
AcDbDs::LegacySchema
  2
AcDbDs::Legacy
280
     1
 91
        0
  0
XRECORD
  5
50D7
102
{ACAD_REACTORS
330
50DA
102
}
330
50DA
100
AcDbXrecord
280
     1
  1
AcDbDs::IndexedPropertySchema
  2
AcDs:Indexable
280
     1
 91
        0
  0
XRECORD
  5
50D8
102
{ACAD_REACTORS
330
50DA
102
}
330
50DA
100
AcDbXrecord
280
     1
  1
AcDbDs::HandleAttributeSchema
  2
AcDbDs::HandleAttribute
280
     7
 91
        1
284
     1
  0
XRECORD
  5
303
102
{ACAD_REACTORS
330
301
102
}
330
301
100
AcDbXrecord
280
     1
270
     1
271
     1
  0
XRECORD
  5
302
102
{ACAD_REACTORS
330
301
102
}
330
301
100
AcDbXrecord
280
     1
270
     1
271
     1
  0
XRECORD
  5
306
102
{ACAD_REACTORS
330
301
102
}
330
301
100
AcDbXrecord
280
     1
270
     1
271
     1
  0
XRECORD
  5
305
102
{ACAD_REACTORS
330
301
102
}
330
301
100
AcDbXrecord
280
     1
270
     1
271
     1
  0
XRECORD
  5
307
102
{ACAD_REACTORS
330
301
102
}
330
301
100
AcDbXrecord
280
     1
270
     1
271
     1
  0
XRECORD
  5
304
102
{ACAD_REACTORS
330
301
102
}
330
301
100
AcDbXrecord
280
     1
270
     1
271
     1
  0
XRECORD
  5
2FB
102
{ACAD_REACTORS
330
2F9
102
}
330
2F9
100
AcDbXrecord
280
     1
270
     1
271
     1
  0
XRECORD
  5
2FA
102
{ACAD_REACTORS
330
2F9
102
}
330
2F9
100
AcDbXrecord
280
     1
270
     1
271
     1
  0
XRECORD
  5
2FE
102
{ACAD_REACTORS
330
2F9
102
}
330
2F9
100
AcDbXrecord
280
     1
270
     1
271
     1
  0
XRECORD
  5
2FD
102
{ACAD_REACTORS
330
2F9
102
}
330
2F9
100
AcDbXrecord
280
     1
270
     1
271
     1
  0
XRECORD
  5
2FF
102
{ACAD_REACTORS
330
2F9
102
}
330
2F9
100
AcDbXrecord
280
     1
270
     1
271
     1
  0
XRECORD
  5
2FC
102
{ACAD_REACTORS
330
2F9
102
}
330
2F9
100
AcDbXrecord
280
     1
270
     1
271
     1
  0
XRECORD
  5
30B
102
{ACAD_REACTORS
330
309
102
}
330
309
100
AcDbXrecord
280
     1
270
     1
271
     1
  0
XRECORD
  5
30A
102
{ACAD_REACTORS
330
309
102
}
330
309
100
AcDbXrecord
280
     1
270
     1
271
     1
  0
XRECORD
  5
30E
102
{ACAD_REACTORS
330
309
102
}
330
309
100
AcDbXrecord
280
     1
270
     1
271
     1
  0
XRECORD
  5
30D
102
{ACAD_REACTORS
330
309
102
}
330
309
100
AcDbXrecord
280
     1
270
     1
271
     1
  0
XRECORD
  5
30F
102
{ACAD_REACTORS
330
309
102
}
330
309
100
AcDbXrecord
280
     1
270
     1
271
     1
  0
XRECORD
  5
30C
102
{ACAD_REACTORS
330
309
102
}
330
309
100
AcDbXrecord
280
     1
270
     1
271
     1
  0
CELLSTYLEMAP
  5
50D2
102
{ACAD_REACTORS
330
36C
102
}
330
36C
100
AcDbCellStyleMap
 90
        3
300
CELLSTYLE
  1
TABLEFORMAT_BEGIN
 90
        5
170
     1
 91
        0
 92
    32768
 62
   257
 93
        1
300
CONTENTFORMAT
  1
CONTENTFORMAT_BEGIN
 90
        0
 91
        0
 92
      512
 93
        0
300

 40
0.0
140
1.0
 94
        5
 62
     0
340
11
144
6.0
309
CONTENTFORMAT_END
171
     1
301
MARGIN
  1
CELLMARGIN_BEGIN
 40
1.5
 40
1.5
 40
1.5
 40
1.5
 40
0.18
 40
0.18
309
CELLMARGIN_END
 94
        6
 95
        1
302
GRIDFORMAT
  1
GRIDFORMAT_BEGIN
 90
        0
 91
        1
 62
     0
 92
       -2
340
0
 93
        0
 40
1.125
309
GRIDFORMAT_END
 95
        2
302
GRIDFORMAT
  1
GRIDFORMAT_BEGIN
 90
        0
 91
        1
 62
     0
 92
       -2
340
0
 93
        0
 40
1.125
309
GRIDFORMAT_END
 95
        4
302
GRIDFORMAT
  1
GRIDFORMAT_BEGIN
 90
        0
 91
        1
 62
     0
 92
       -2
340
0
 93
        0
 40
1.125
309
GRIDFORMAT_END
 95
        8
302
GRIDFORMAT
  1
GRIDFORMAT_BEGIN
 90
        0
 91
        1
 62
     0
 92
       -2
340
0
 93
        0
 40
1.125
309
GRIDFORMAT_END
 95
       16
302
GRIDFORMAT
  1
GRIDFORMAT_BEGIN
 90
        0
 91
        1
 62
     0
 92
       -2
340
0
 93
        0
 40
1.125
309
GRIDFORMAT_END
 95
       32
302
GRIDFORMAT
  1
GRIDFORMAT_BEGIN
 90
        0
 91
        1
 62
     0
 92
       -2
340
0
 93
        0
 40
1.125
309
GRIDFORMAT_END
309
TABLEFORMAT_END
  1
CELLSTYLE_BEGIN
 90
        1
 91
        1
300
_TITLE
309
CELLSTYLE_END
300
CELLSTYLE
  1
TABLEFORMAT_BEGIN
 90
        5
170
     1
 91
        0
 92
        0
 62
   257
 93
        1
300
CONTENTFORMAT
  1
CONTENTFORMAT_BEGIN
 90
        0
 91
        0
 92
      512
 93
        0
300

 40
0.0
140
1.0
 94
        5
 62
     0
340
11
144
4.5
309
CONTENTFORMAT_END
171
     1
301
MARGIN
  1
CELLMARGIN_BEGIN
 40
1.5
 40
1.5
 40
1.5
 40
1.5
 40
0.18
 40
0.18
309
CELLMARGIN_END
 94
        6
 95
        1
302
GRIDFORMAT
  1
GRIDFORMAT_BEGIN
 90
        0
 91
        1
 62
     0
 92
       -2
340
0
 93
        0
 40
1.125
309
GRIDFORMAT_END
 95
        2
302
GRIDFORMAT
  1
GRIDFORMAT_BEGIN
 90
        0
 91
        1
 62
     0
 92
       -2
340
0
 93
        0
 40
1.125
309
GRIDFORMAT_END
 95
        4
302
GRIDFORMAT
  1
GRIDFORMAT_BEGIN
 90
        0
 91
        1
 62
     0
 92
       -2
340
0
 93
        0
 40
1.125
309
GRIDFORMAT_END
 95
        8
302
GRIDFORMAT
  1
GRIDFORMAT_BEGIN
 90
        0
 91
        1
 62
     0
 92
       -2
340
0
 93
        0
 40
1.125
309
GRIDFORMAT_END
 95
       16
302
GRIDFORMAT
  1
GRIDFORMAT_BEGIN
 90
        0
 91
        1
 62
     0
 92
       -2
340
0
 93
        0
 40
1.125
309
GRIDFORMAT_END
 95
       32
302
GRIDFORMAT
  1
GRIDFORMAT_BEGIN
 90
        0
 91
        1
 62
     0
 92
       -2
340
0
 93
        0
 40
1.125
309
GRIDFORMAT_END
309
TABLEFORMAT_END
  1
CELLSTYLE_BEGIN
 90
        2
 91
        1
300
_HEADER
309
CELLSTYLE_END
300
CELLSTYLE
  1
TABLEFORMAT_BEGIN
 90
        5
170
     1
 91
        0
 92
        0
 62
   257
 93
        1
300
CONTENTFORMAT
  1
CONTENTFORMAT_BEGIN
 90
        0
 91
        0
 92
      512
 93
        0
300

 40
0.0
140
1.0
 94
        2
 62
     0
340
11
144
4.5
309
CONTENTFORMAT_END
171
     1
301
MARGIN
  1
CELLMARGIN_BEGIN
 40
1.5
 40
1.5
 40
1.5
 40
1.5
 40
0.18
 40
0.18
309
CELLMARGIN_END
 94
        6
 95
        1
302
GRIDFORMAT
  1
GRIDFORMAT_BEGIN
 90
        0
 91
        1
 62
     0
 92
       -2
340
0
 93
        0
 40
1.125
309
GRIDFORMAT_END
 95
        2
302
GRIDFORMAT
  1
GRIDFORMAT_BEGIN
 90
        0
 91
        1
 62
     0
 92
       -2
340
0
 93
        0
 40
1.125
309
GRIDFORMAT_END
 95
        4
302
GRIDFORMAT
  1
GRIDFORMAT_BEGIN
 90
        0
 91
        1
 62
     0
 92
       -2
340
0
 93
        0
 40
1.125
309
GRIDFORMAT_END
 95
        8
302
GRIDFORMAT
  1
GRIDFORMAT_BEGIN
 90
        0
 91
        1
 62
     0
 92
       -2
340
0
 93
        0
 40
1.125
309
GRIDFORMAT_END
 95
       16
302
GRIDFORMAT
  1
GRIDFORMAT_BEGIN
 90
        0
 91
        1
 62
     0
 92
       -2
340
0
 93
        0
 40
1.125
309
GRIDFORMAT_END
 95
       32
302
GRIDFORMAT
  1
GRIDFORMAT_BEGIN
 90
        0
 91
        1
 62
     0
 92
       -2
340
0
 93
        0
 40
1.125
309
GRIDFORMAT_END
309
TABLEFORMAT_END
  1
CELLSTYLE_BEGIN
 90
        3
 91
        2
300
_DATA
309
CELLSTYLE_END
  0
XRECORD
  5
50E7
102
{ACAD_REACTORS
330
50E6
102
}
330
50E6
100
AcDbXrecord
280
     1
102
RTVSPost2010Prop28
280
     1
102
RTVSPost2010PropOp28
 70
     1
102
RTVSPost2010Prop29
280
     1
102
RTVSPost2010PropOp29
 70
     1
102
RTVSPost2010Prop30
280
     0
102
RTVSPost2010PropOp30
 70
     1
102
RTVSPost2010Prop31
280
     0
102
RTVSPost2010PropOp31
 70
     1
102
RTVSPost2010Prop32
280
     0
102
RTVSPost2010PropOp32
 70
     1
102
RTVSPost2010Prop33
280
     0
102
RTVSPost2010PropOp33
 70
     1
102
RTVSPost2010Prop34
280
     0
102
RTVSPost2010PropOp34
 70
     1
102
RTVSPost2010Prop35
280
     0
102
RTVSPost2010PropOp35
 70
     1
102
RTVSPost2010Prop36
280
     0
102
RTVSPost2010PropOp36
 70
     1
102
RTVSPost2010Prop37
 90
       50
102
RTVSPost2010PropOp37
 70
     1
102
RTVSPost2010Prop38
140
0.0
102
RTVSPost2010PropOp38
 70
     1
102
RTVSPost2010Prop39
140
1.0
102
RTVSPost2010PropOp39
 70
     1
102
RTVSPost2010Prop40
 90
        0
102
RTVSPost2010PropOp40
 70
     1
102
RTVSPost2010Prop41ColorIndex
 90
       18
102
RTVSPost2010Prop41ColorRGB
 90
-16777216
102
RTVSPost2010PropOp41
 70
     1
102
RTVSPost2010Prop42
 90
       50
102
RTVSPost2010PropOp42
 70
     1
102
RTVSPost2010Prop43
 90
        3
102
RTVSPost2010PropOp43
 70
     1
102
RTVSPost2010Prop44ColorIndex
 90
        5
102
RTVSPost2010Prop44ColorRGB
 90
      255
102
RTVSPost2010PropOp44
 70
     1
102
RTVSPost2010Prop45
280
     0
102
RTVSPost2010PropOp45
 70
     1
102
RTVSPost2010Prop46
 90
       50
102
RTVSPost2010PropOp46
 70
     1
102
RTVSPost2010Prop47
 90
       50
102
RTVSPost2010PropOp47
 70
     1
102
RTVSPost2010Prop48
 90
       50
102
RTVSPost2010PropOp48
 70
     1
102
RTVSPost2010Prop49
280
     0
102
RTVSPost2010PropOp49
 70
     1
102
RTVSPost2010Prop50
 90
       50
102
RTVSPost2010PropOp50
 70
     1
102
RTVSPost2010Prop51ColorIndex
 90
      256
102
RTVSPost2010Prop51ColorRGB
 90
-16777216
102
RTVSPost2010PropOp51
 70
     0
102
RTVSPost2010Prop52
140
1.0
102
RTVSPost2010PropOp52
 70
     0
102
RTVSPost2010Prop53
 90
        2
102
RTVSPost2010PropOp53
 70
     1
102
RTVSPost2010Prop54
  1
strokes_ogs.tif
102
RTVSPost2010PropOp54
 70
     1
102
RTVSPost2010Prop55
280
     0
102
RTVSPost2010PropOp55
 70
     1
102
RTVSPost2010Prop56
140
1.0
102
RTVSPost2010PropOp56
 70
     1
102
RTVSPost2010Prop57
140
1.0
102
RTVSPost2010PropOp57
 70
     1
  0
XRECORD
  5
50E5
102
{ACAD_REACTORS
330
50E4
102
}
330
50E4
100
AcDbXrecord
280
     1
102
RTVSPost2010Prop28
280
     0
102
RTVSPost2010PropOp28
 70
     1
102
RTVSPost2010Prop29
280
     1
102
RTVSPost2010PropOp29
 70
     1
102
RTVSPost2010Prop30
280
     1
102
RTVSPost2010PropOp30
 70
     1
102
RTVSPost2010Prop31
280
     0
102
RTVSPost2010PropOp31
 70
     1
102
RTVSPost2010Prop32
280
     0
102
RTVSPost2010PropOp32
 70
     1
102
RTVSPost2010Prop33
280
     0
102
RTVSPost2010PropOp33
 70
     1
102
RTVSPost2010Prop34
280
     0
102
RTVSPost2010PropOp34
 70
     1
102
RTVSPost2010Prop35
280
     0
102
RTVSPost2010PropOp35
 70
     1
102
RTVSPost2010Prop36
280
     0
102
RTVSPost2010PropOp36
 70
     1
102
RTVSPost2010Prop37
 90
       50
102
RTVSPost2010PropOp37
 70
     1
102
RTVSPost2010Prop38
140
0.0
102
RTVSPost2010PropOp38
 70
     1
102
RTVSPost2010Prop39
140
1.0
102
RTVSPost2010PropOp39
 70
     1
102
RTVSPost2010Prop40
 90
        0
102
RTVSPost2010PropOp40
 70
     1
102
RTVSPost2010Prop41ColorIndex
 90
       18
102
RTVSPost2010Prop41ColorRGB
 90
-16777216
102
RTVSPost2010PropOp41
 70
     1
102
RTVSPost2010Prop42
 90
       50
102
RTVSPost2010PropOp42
 70
     1
102
RTVSPost2010Prop43
 90
        3
102
RTVSPost2010PropOp43
 70
     1
102
RTVSPost2010Prop44ColorIndex
 90
        5
102
RTVSPost2010Prop44ColorRGB
 90
      255
102
RTVSPost2010PropOp44
 70
     1
102
RTVSPost2010Prop45
280
     0
102
RTVSPost2010PropOp45
 70
     1
102
RTVSPost2010Prop46
 90
       50
102
RTVSPost2010PropOp46
 70
     1
102
RTVSPost2010Prop47
 90
       50
102
RTVSPost2010PropOp47
 70
     1
102
RTVSPost2010Prop48
 90
       50
102
RTVSPost2010PropOp48
 70
     1
102
RTVSPost2010Prop49
280
     0
102
RTVSPost2010PropOp49
 70
     1
102
RTVSPost2010Prop50
 90
       50
102
RTVSPost2010PropOp50
 70
     1
102
RTVSPost2010Prop51ColorIndex
 90
      256
102
RTVSPost2010Prop51ColorRGB
 90
-16777216
102
RTVSPost2010PropOp51
 70
     0
102
RTVSPost2010Prop52
140
1.0
102
RTVSPost2010PropOp52
 70
     0
102
RTVSPost2010Prop53
 90
        2
102
RTVSPost2010PropOp53
 70
     1
102
RTVSPost2010Prop54
  1
strokes_ogs.tif
102
RTVSPost2010PropOp54
 70
     1
102
RTVSPost2010Prop55
280
     0
102
RTVSPost2010PropOp55
 70
     1
102
RTVSPost2010Prop56
140
1.0
102
RTVSPost2010PropOp56
 70
     1
102
RTVSPost2010Prop57
140
1.0
102
RTVSPost2010PropOp57
 70
     1
  0
XRECORD
  5
50F3
102
{ACAD_REACTORS
330
50F2
102
}
330
50F2
100
AcDbXrecord
280
     1
102
RTVSPost2010Prop28
280
     0
102
RTVSPost2010PropOp28
 70
     1
102
RTVSPost2010Prop29
280
     1
102
RTVSPost2010PropOp29
 70
     1
102
RTVSPost2010Prop30
280
     1
102
RTVSPost2010PropOp30
 70
     1
102
RTVSPost2010Prop31
280
     0
102
RTVSPost2010PropOp31
 70
     1
102
RTVSPost2010Prop32
280
     0
102
RTVSPost2010PropOp32
 70
     1
102
RTVSPost2010Prop33
280
     0
102
RTVSPost2010PropOp33
 70
     1
102
RTVSPost2010Prop34
280
     0
102
RTVSPost2010PropOp34
 70
     1
102
RTVSPost2010Prop35
280
     0
102
RTVSPost2010PropOp35
 70
     1
102
RTVSPost2010Prop36
280
     0
102
RTVSPost2010PropOp36
 70
     1
102
RTVSPost2010Prop37
 90
       50
102
RTVSPost2010PropOp37
 70
     1
102
RTVSPost2010Prop38
140
0.0
102
RTVSPost2010PropOp38
 70
     1
102
RTVSPost2010Prop39
140
1.0
102
RTVSPost2010PropOp39
 70
     1
102
RTVSPost2010Prop40
 90
        0
102
RTVSPost2010PropOp40
 70
     1
102
RTVSPost2010Prop41ColorIndex
 90
       18
102
RTVSPost2010Prop41ColorRGB
 90
-16777216
102
RTVSPost2010PropOp41
 70
     1
102
RTVSPost2010Prop42
 90
       50
102
RTVSPost2010PropOp42
 70
     1
102
RTVSPost2010Prop43
 90
        3
102
RTVSPost2010PropOp43
 70
     1
102
RTVSPost2010Prop44ColorIndex
 90
        5
102
RTVSPost2010Prop44ColorRGB
 90
      255
102
RTVSPost2010PropOp44
 70
     1
102
RTVSPost2010Prop45
280
     0
102
RTVSPost2010PropOp45
 70
     1
102
RTVSPost2010Prop46
 90
       50
102
RTVSPost2010PropOp46
 70
     1
102
RTVSPost2010Prop47
 90
       50
102
RTVSPost2010PropOp47
 70
     1
102
RTVSPost2010Prop48
 90
       50
102
RTVSPost2010PropOp48
 70
     1
102
RTVSPost2010Prop49
280
     0
102
RTVSPost2010PropOp49
 70
     1
102
RTVSPost2010Prop50
 90
       50
102
RTVSPost2010PropOp50
 70
     1
102
RTVSPost2010Prop51ColorIndex
 90
      256
102
RTVSPost2010Prop51ColorRGB
 90
-16777216
102
RTVSPost2010PropOp51
 70
     0
102
RTVSPost2010Prop52
140
1.0
102
RTVSPost2010PropOp52
 70
     0
102
RTVSPost2010Prop53
 90
        2
102
RTVSPost2010PropOp53
 70
     1
102
RTVSPost2010Prop54
  1
strokes_ogs.tif
102
RTVSPost2010PropOp54
 70
     1
102
RTVSPost2010Prop55
280
     0
102
RTVSPost2010PropOp55
 70
     1
102
RTVSPost2010Prop56
140
1.0
102
RTVSPost2010PropOp56
 70
     1
102
RTVSPost2010Prop57
140
1.0
102
RTVSPost2010PropOp57
 70
     1
  0
XRECORD
  5
50FB
102
{ACAD_REACTORS
330
50FA
102
}
330
50FA
100
AcDbXrecord
280
     1
102
RTVSPost2010Prop28
280
     0
102
RTVSPost2010PropOp28
 70
     1
102
RTVSPost2010Prop29
280
     1
102
RTVSPost2010PropOp29
 70
     1
102
RTVSPost2010Prop30
280
     1
102
RTVSPost2010PropOp30
 70
     1
102
RTVSPost2010Prop31
280
     0
102
RTVSPost2010PropOp31
 70
     1
102
RTVSPost2010Prop32
280
     0
102
RTVSPost2010PropOp32
 70
     1
102
RTVSPost2010Prop33
280
     0
102
RTVSPost2010PropOp33
 70
     1
102
RTVSPost2010Prop34
280
     0
102
RTVSPost2010PropOp34
 70
     1
102
RTVSPost2010Prop35
280
     0
102
RTVSPost2010PropOp35
 70
     1
102
RTVSPost2010Prop36
280
     0
102
RTVSPost2010PropOp36
 70
     1
102
RTVSPost2010Prop37
 90
       50
102
RTVSPost2010PropOp37
 70
     1
102
RTVSPost2010Prop38
140
0.0
102
RTVSPost2010PropOp38
 70
     1
102
RTVSPost2010Prop39
140
1.0
102
RTVSPost2010PropOp39
 70
     1
102
RTVSPost2010Prop40
 90
        0
102
RTVSPost2010PropOp40
 70
     1
102
RTVSPost2010Prop41ColorIndex
 90
       18
102
RTVSPost2010Prop41ColorRGB
 90
-16777216
102
RTVSPost2010PropOp41
 70
     1
102
RTVSPost2010Prop42
 90
       50
102
RTVSPost2010PropOp42
 70
     1
102
RTVSPost2010Prop43
 90
        3
102
RTVSPost2010PropOp43
 70
     1
102
RTVSPost2010Prop44ColorIndex
 90
        5
102
RTVSPost2010Prop44ColorRGB
 90
      255
102
RTVSPost2010PropOp44
 70
     1
102
RTVSPost2010Prop45
280
     0
102
RTVSPost2010PropOp45
 70
     1
102
RTVSPost2010Prop46
 90
       50
102
RTVSPost2010PropOp46
 70
     1
102
RTVSPost2010Prop47
 90
       50
102
RTVSPost2010PropOp47
 70
     1
102
RTVSPost2010Prop48
 90
       50
102
RTVSPost2010PropOp48
 70
     1
102
RTVSPost2010Prop49
280
     0
102
RTVSPost2010PropOp49
 70
     1
102
RTVSPost2010Prop50
 90
       50
102
RTVSPost2010PropOp50
 70
     1
102
RTVSPost2010Prop51ColorIndex
 90
      256
102
RTVSPost2010Prop51ColorRGB
 90
-16777216
102
RTVSPost2010PropOp51
 70
     0
102
RTVSPost2010Prop52
140
1.0
102
RTVSPost2010PropOp52
 70
     0
102
RTVSPost2010Prop53
 90
        2
102
RTVSPost2010PropOp53
 70
     1
102
RTVSPost2010Prop54
  1
strokes_ogs.tif
102
RTVSPost2010PropOp54
 70
     1
102
RTVSPost2010Prop55
280
     0
102
RTVSPost2010PropOp55
 70
     1
102
RTVSPost2010Prop56
140
1.0
102
RTVSPost2010PropOp56
 70
     1
102
RTVSPost2010Prop57
140
1.0
102
RTVSPost2010PropOp57
 70
     1
  0
XRECORD
  5
50ED
102
{ACAD_REACTORS
330
50EC
102
}
330
50EC
100
AcDbXrecord
280
     1
102
RTVSPost2010Prop28
280
     0
102
RTVSPost2010PropOp28
 70
     1
102
RTVSPost2010Prop29
280
     1
102
RTVSPost2010PropOp29
 70
     1
102
RTVSPost2010Prop30
280
     1
102
RTVSPost2010PropOp30
 70
     1
102
RTVSPost2010Prop31
280
     0
102
RTVSPost2010PropOp31
 70
     1
102
RTVSPost2010Prop32
280
     0
102
RTVSPost2010PropOp32
 70
     1
102
RTVSPost2010Prop33
280
     0
102
RTVSPost2010PropOp33
 70
     1
102
RTVSPost2010Prop34
280
     0
102
RTVSPost2010PropOp34
 70
     1
102
RTVSPost2010Prop35
280
     0
102
RTVSPost2010PropOp35
 70
     1
102
RTVSPost2010Prop36
280
     0
102
RTVSPost2010PropOp36
 70
     1
102
RTVSPost2010Prop37
 90
       50
102
RTVSPost2010PropOp37
 70
     1
102
RTVSPost2010Prop38
140
0.0
102
RTVSPost2010PropOp38
 70
     1
102
RTVSPost2010Prop39
140
1.0
102
RTVSPost2010PropOp39
 70
     1
102
RTVSPost2010Prop40
 90
        0
102
RTVSPost2010PropOp40
 70
     1
102
RTVSPost2010Prop41ColorIndex
 90
       18
102
RTVSPost2010Prop41ColorRGB
 90
-16777216
102
RTVSPost2010PropOp41
 70
     1
102
RTVSPost2010Prop42
 90
       50
102
RTVSPost2010PropOp42
 70
     1
102
RTVSPost2010Prop43
 90
        3
102
RTVSPost2010PropOp43
 70
     1
102
RTVSPost2010Prop44ColorIndex
 90
        5
102
RTVSPost2010Prop44ColorRGB
 90
      255
102
RTVSPost2010PropOp44
 70
     1
102
RTVSPost2010Prop45
280
     0
102
RTVSPost2010PropOp45
 70
     1
102
RTVSPost2010Prop46
 90
       50
102
RTVSPost2010PropOp46
 70
     1
102
RTVSPost2010Prop47
 90
       50
102
RTVSPost2010PropOp47
 70
     1
102
RTVSPost2010Prop48
 90
       50
102
RTVSPost2010PropOp48
 70
     1
102
RTVSPost2010Prop49
280
     0
102
RTVSPost2010PropOp49
 70
     1
102
RTVSPost2010Prop50
 90
       50
102
RTVSPost2010PropOp50
 70
     1
102
RTVSPost2010Prop51ColorIndex
 90
      256
102
RTVSPost2010Prop51ColorRGB
 90
-16777216
102
RTVSPost2010PropOp51
 70
     0
102
RTVSPost2010Prop52
140
1.0
102
RTVSPost2010PropOp52
 70
     0
102
RTVSPost2010Prop53
 90
        2
102
RTVSPost2010PropOp53
 70
     1
102
RTVSPost2010Prop54
  1
strokes_ogs.tif
102
RTVSPost2010PropOp54
 70
     1
102
RTVSPost2010Prop55
280
     0
102
RTVSPost2010PropOp55
 70
     1
102
RTVSPost2010Prop56
140
1.0
102
RTVSPost2010PropOp56
 70
     1
102
RTVSPost2010Prop57
140
1.0
102
RTVSPost2010PropOp57
 70
     1
  0
XRECORD
  5
50F1
102
{ACAD_REACTORS
330
50F0
102
}
330
50F0
100
AcDbXrecord
280
     1
102
RTVSPost2010Prop28
280
     0
102
RTVSPost2010PropOp28
 70
     1
102
RTVSPost2010Prop29
280
     1
102
RTVSPost2010PropOp29
 70
     1
102
RTVSPost2010Prop30
280
     1
102
RTVSPost2010PropOp30
 70
     1
102
RTVSPost2010Prop31
280
     0
102
RTVSPost2010PropOp31
 70
     1
102
RTVSPost2010Prop32
280
     0
102
RTVSPost2010PropOp32
 70
     1
102
RTVSPost2010Prop33
280
     0
102
RTVSPost2010PropOp33
 70
     1
102
RTVSPost2010Prop34
280
     0
102
RTVSPost2010PropOp34
 70
     1
102
RTVSPost2010Prop35
280
     0
102
RTVSPost2010PropOp35
 70
     1
102
RTVSPost2010Prop36
280
     0
102
RTVSPost2010PropOp36
 70
     1
102
RTVSPost2010Prop37
 90
       50
102
RTVSPost2010PropOp37
 70
     1
102
RTVSPost2010Prop38
140
0.0
102
RTVSPost2010PropOp38
 70
     1
102
RTVSPost2010Prop39
140
1.0
102
RTVSPost2010PropOp39
 70
     1
102
RTVSPost2010Prop40
 90
        0
102
RTVSPost2010PropOp40
 70
     1
102
RTVSPost2010Prop41ColorIndex
 90
       18
102
RTVSPost2010Prop41ColorRGB
 90
-16777216
102
RTVSPost2010PropOp41
 70
     1
102
RTVSPost2010Prop42
 90
       50
102
RTVSPost2010PropOp42
 70
     1
102
RTVSPost2010Prop43
 90
        3
102
RTVSPost2010PropOp43
 70
     1
102
RTVSPost2010Prop44ColorIndex
 90
        5
102
RTVSPost2010Prop44ColorRGB
 90
      255
102
RTVSPost2010PropOp44
 70
     1
102
RTVSPost2010Prop45
280
     0
102
RTVSPost2010PropOp45
 70
     1
102
RTVSPost2010Prop46
 90
       50
102
RTVSPost2010PropOp46
 70
     1
102
RTVSPost2010Prop47
 90
       50
102
RTVSPost2010PropOp47
 70
     1
102
RTVSPost2010Prop48
 90
       50
102
RTVSPost2010PropOp48
 70
     1
102
RTVSPost2010Prop49
280
     0
102
RTVSPost2010PropOp49
 70
     1
102
RTVSPost2010Prop50
 90
       50
102
RTVSPost2010PropOp50
 70
     1
102
RTVSPost2010Prop51ColorIndex
 90
      256
102
RTVSPost2010Prop51ColorRGB
 90
-16777216
102
RTVSPost2010PropOp51
 70
     0
102
RTVSPost2010Prop52
140
1.0
102
RTVSPost2010PropOp52
 70
     0
102
RTVSPost2010Prop53
 90
        2
102
RTVSPost2010PropOp53
 70
     1
102
RTVSPost2010Prop54
  1
strokes_ogs.tif
102
RTVSPost2010PropOp54
 70
     1
102
RTVSPost2010Prop55
280
     0
102
RTVSPost2010PropOp55
 70
     1
102
RTVSPost2010Prop56
140
1.0
102
RTVSPost2010PropOp56
 70
     1
102
RTVSPost2010Prop57
140
1.0
102
RTVSPost2010PropOp57
 70
     1
  0
XRECORD
  5
510B
102
{ACAD_REACTORS
330
510A
102
}
330
510A
100
AcDbXrecord
280
     1
102
RTVSPost2010Prop28
280
     0
102
RTVSPost2010PropOp28
 70
     1
102
RTVSPost2010Prop29
280
     1
102
RTVSPost2010PropOp29
 70
     1
102
RTVSPost2010Prop30
280
     1
102
RTVSPost2010PropOp30
 70
     1
102
RTVSPost2010Prop31
280
     0
102
RTVSPost2010PropOp31
 70
     1
102
RTVSPost2010Prop32
280
     0
102
RTVSPost2010PropOp32
 70
     1
102
RTVSPost2010Prop33
280
     0
102
RTVSPost2010PropOp33
 70
     1
102
RTVSPost2010Prop34
280
     0
102
RTVSPost2010PropOp34
 70
     1
102
RTVSPost2010Prop35
280
     0
102
RTVSPost2010PropOp35
 70
     1
102
RTVSPost2010Prop36
280
     0
102
RTVSPost2010PropOp36
 70
     1
102
RTVSPost2010Prop37
 90
       50
102
RTVSPost2010PropOp37
 70
     0
102
RTVSPost2010Prop38
140
0.0
102
RTVSPost2010PropOp38
 70
     0
102
RTVSPost2010Prop39
140
1.0
102
RTVSPost2010PropOp39
 70
     0
102
RTVSPost2010Prop40
 90
        0
102
RTVSPost2010PropOp40
 70
     0
102
RTVSPost2010Prop41ColorIndex
 90
       18
102
RTVSPost2010Prop41ColorRGB
 90
-16777216
102
RTVSPost2010PropOp41
 70
     0
102
RTVSPost2010Prop42
 90
       50
102
RTVSPost2010PropOp42
 70
     0
102
RTVSPost2010Prop43
 90
        3
102
RTVSPost2010PropOp43
 70
     0
102
RTVSPost2010Prop44ColorIndex
 90
        5
102
RTVSPost2010Prop44ColorRGB
 90
      255
102
RTVSPost2010PropOp44
 70
     0
102
RTVSPost2010Prop45
280
     0
102
RTVSPost2010PropOp45
 70
     1
102
RTVSPost2010Prop46
 90
       50
102
RTVSPost2010PropOp46
 70
     0
102
RTVSPost2010Prop47
 90
       50
102
RTVSPost2010PropOp47
 70
     0
102
RTVSPost2010Prop48
 90
       50
102
RTVSPost2010PropOp48
 70
     0
102
RTVSPost2010Prop49
280
     0
102
RTVSPost2010PropOp49
 70
     1
102
RTVSPost2010Prop50
 90
       50
102
RTVSPost2010PropOp50
 70
     0
102
RTVSPost2010Prop51ColorIndex
 90
      256
102
RTVSPost2010Prop51ColorRGB
 90
-16777216
102
RTVSPost2010PropOp51
 70
     0
102
RTVSPost2010Prop52
140
1.0
102
RTVSPost2010PropOp52
 70
     0
102
RTVSPost2010Prop53
 90
        2
102
RTVSPost2010PropOp53
 70
     0
102
RTVSPost2010Prop54
  1
strokes_ogs.tif
102
RTVSPost2010PropOp54
 70
     0
102
RTVSPost2010Prop55
280
     0
102
RTVSPost2010PropOp55
 70
     1
102
RTVSPost2010Prop56
140
1.0
102
RTVSPost2010PropOp56
 70
     0
102
RTVSPost2010Prop57
140
1.0
102
RTVSPost2010PropOp57
 70
     0
  0
XRECORD
  5
50F9
102
{ACAD_REACTORS
330
50F8
102
}
330
50F8
100
AcDbXrecord
280
     1
102
RTVSPost2010Prop28
280
     0
102
RTVSPost2010PropOp28
 70
     1
102
RTVSPost2010Prop29
280
     1
102
RTVSPost2010PropOp29
 70
     1
102
RTVSPost2010Prop30
280
     1
102
RTVSPost2010PropOp30
 70
     1
102
RTVSPost2010Prop31
280
     0
102
RTVSPost2010PropOp31
 70
     1
102
RTVSPost2010Prop32
280
     0
102
RTVSPost2010PropOp32
 70
     1
102
RTVSPost2010Prop33
280
     0
102
RTVSPost2010PropOp33
 70
     1
102
RTVSPost2010Prop34
280
     0
102
RTVSPost2010PropOp34
 70
     1
102
RTVSPost2010Prop35
280
     0
102
RTVSPost2010PropOp35
 70
     1
102
RTVSPost2010Prop36
280
     0
102
RTVSPost2010PropOp36
 70
     1
102
RTVSPost2010Prop37
 90
       50
102
RTVSPost2010PropOp37
 70
     1
102
RTVSPost2010Prop38
140
0.0
102
RTVSPost2010PropOp38
 70
     1
102
RTVSPost2010Prop39
140
1.0
102
RTVSPost2010PropOp39
 70
     1
102
RTVSPost2010Prop40
 90
        0
102
RTVSPost2010PropOp40
 70
     1
102
RTVSPost2010Prop41ColorIndex
 90
       18
102
RTVSPost2010Prop41ColorRGB
 90
-16777216
102
RTVSPost2010PropOp41
 70
     1
102
RTVSPost2010Prop42
 90
       50
102
RTVSPost2010PropOp42
 70
     1
102
RTVSPost2010Prop43
 90
        3
102
RTVSPost2010PropOp43
 70
     1
102
RTVSPost2010Prop44ColorIndex
 90
        5
102
RTVSPost2010Prop44ColorRGB
 90
      255
102
RTVSPost2010PropOp44
 70
     1
102
RTVSPost2010Prop45
280
     0
102
RTVSPost2010PropOp45
 70
     1
102
RTVSPost2010Prop46
 90
       50
102
RTVSPost2010PropOp46
 70
     1
102
RTVSPost2010Prop47
 90
       50
102
RTVSPost2010PropOp47
 70
     1
102
RTVSPost2010Prop48
 90
       50
102
RTVSPost2010PropOp48
 70
     1
102
RTVSPost2010Prop49
280
     0
102
RTVSPost2010PropOp49
 70
     1
102
RTVSPost2010Prop50
 90
       50
102
RTVSPost2010PropOp50
 70
     1
102
RTVSPost2010Prop51ColorIndex
 90
      256
102
RTVSPost2010Prop51ColorRGB
 90
-16777216
102
RTVSPost2010PropOp51
 70
     0
102
RTVSPost2010Prop52
140
1.0
102
RTVSPost2010PropOp52
 70
     0
102
RTVSPost2010Prop53
 90
        2
102
RTVSPost2010PropOp53
 70
     1
102
RTVSPost2010Prop54
  1
strokes_ogs.tif
102
RTVSPost2010PropOp54
 70
     1
102
RTVSPost2010Prop55
280
     0
102
RTVSPost2010PropOp55
 70
     1
102
RTVSPost2010Prop56
140
1.0
102
RTVSPost2010PropOp56
 70
     1
102
RTVSPost2010Prop57
140
1.0
102
RTVSPost2010PropOp57
 70
     1
  0
XRECORD
  5
50DD
102
{ACAD_REACTORS
330
50DC
102
}
330
50DC
100
AcDbXrecord
280
     1
102
RTVSPost2010Prop28
280
     0
102
RTVSPost2010PropOp28
 70
     1
102
RTVSPost2010Prop29
280
     1
102
RTVSPost2010PropOp29
 70
     1
102
RTVSPost2010Prop30
280
     1
102
RTVSPost2010PropOp30
 70
     1
102
RTVSPost2010Prop31
280
     0
102
RTVSPost2010PropOp31
 70
     1
102
RTVSPost2010Prop32
280
     0
102
RTVSPost2010PropOp32
 70
     1
102
RTVSPost2010Prop33
280
     0
102
RTVSPost2010PropOp33
 70
     1
102
RTVSPost2010Prop34
280
     0
102
RTVSPost2010PropOp34
 70
     1
102
RTVSPost2010Prop35
280
     0
102
RTVSPost2010PropOp35
 70
     1
102
RTVSPost2010Prop36
280
     0
102
RTVSPost2010PropOp36
 70
     1
102
RTVSPost2010Prop37
 90
       50
102
RTVSPost2010PropOp37
 70
     1
102
RTVSPost2010Prop38
140
0.0
102
RTVSPost2010PropOp38
 70
     1
102
RTVSPost2010Prop39
140
1.0
102
RTVSPost2010PropOp39
 70
     1
102
RTVSPost2010Prop40
 90
        0
102
RTVSPost2010PropOp40
 70
     1
102
RTVSPost2010Prop41ColorIndex
 90
       18
102
RTVSPost2010Prop41ColorRGB
 90
-16777216
102
RTVSPost2010PropOp41
 70
     1
102
RTVSPost2010Prop42
 90
       50
102
RTVSPost2010PropOp42
 70
     1
102
RTVSPost2010Prop43
 90
        3
102
RTVSPost2010PropOp43
 70
     1
102
RTVSPost2010Prop44ColorIndex
 90
        5
102
RTVSPost2010Prop44ColorRGB
 90
      255
102
RTVSPost2010PropOp44
 70
     1
102
RTVSPost2010Prop45
280
     0
102
RTVSPost2010PropOp45
 70
     1
102
RTVSPost2010Prop46
 90
       50
102
RTVSPost2010PropOp46
 70
     1
102
RTVSPost2010Prop47
 90
       50
102
RTVSPost2010PropOp47
 70
     1
102
RTVSPost2010Prop48
 90
       50
102
RTVSPost2010PropOp48
 70
     1
102
RTVSPost2010Prop49
280
     0
102
RTVSPost2010PropOp49
 70
     1
102
RTVSPost2010Prop50
 90
       50
102
RTVSPost2010PropOp50
 70
     1
102
RTVSPost2010Prop51ColorIndex
 90
      256
102
RTVSPost2010Prop51ColorRGB
 90
-16777216
102
RTVSPost2010PropOp51
 70
     0
102
RTVSPost2010Prop52
140
1.0
102
RTVSPost2010PropOp52
 70
     0
102
RTVSPost2010Prop53
 90
        2
102
RTVSPost2010PropOp53
 70
     1
102
RTVSPost2010Prop54
  1
strokes_ogs.tif
102
RTVSPost2010PropOp54
 70
     1
102
RTVSPost2010Prop55
280
     0
102
RTVSPost2010PropOp55
 70
     1
102
RTVSPost2010Prop56
140
1.0
102
RTVSPost2010PropOp56
 70
     1
102
RTVSPost2010Prop57
140
1.0
102
RTVSPost2010PropOp57
 70
     1
  0
XRECORD
  5
50DF
102
{ACAD_REACTORS
330
50DE
102
}
330
50DE
100
AcDbXrecord
280
     1
102
RTVSPost2010Prop28
280
     0
102
RTVSPost2010PropOp28
 70
     1
102
RTVSPost2010Prop29
280
     1
102
RTVSPost2010PropOp29
 70
     1
102
RTVSPost2010Prop30
280
     1
102
RTVSPost2010PropOp30
 70
     1
102
RTVSPost2010Prop31
280
     0
102
RTVSPost2010PropOp31
 70
     1
102
RTVSPost2010Prop32
280
     0
102
RTVSPost2010PropOp32
 70
     1
102
RTVSPost2010Prop33
280
     0
102
RTVSPost2010PropOp33
 70
     1
102
RTVSPost2010Prop34
280
     0
102
RTVSPost2010PropOp34
 70
     1
102
RTVSPost2010Prop35
280
     0
102
RTVSPost2010PropOp35
 70
     1
102
RTVSPost2010Prop36
280
     0
102
RTVSPost2010PropOp36
 70
     1
102
RTVSPost2010Prop37
 90
       50
102
RTVSPost2010PropOp37
 70
     1
102
RTVSPost2010Prop38
140
0.0
102
RTVSPost2010PropOp38
 70
     1
102
RTVSPost2010Prop39
140
1.0
102
RTVSPost2010PropOp39
 70
     1
102
RTVSPost2010Prop40
 90
        0
102
RTVSPost2010PropOp40
 70
     1
102
RTVSPost2010Prop41ColorIndex
 90
       18
102
RTVSPost2010Prop41ColorRGB
 90
-16777216
102
RTVSPost2010PropOp41
 70
     1
102
RTVSPost2010Prop42
 90
       50
102
RTVSPost2010PropOp42
 70
     1
102
RTVSPost2010Prop43
 90
        3
102
RTVSPost2010PropOp43
 70
     1
102
RTVSPost2010Prop44ColorIndex
 90
        5
102
RTVSPost2010Prop44ColorRGB
 90
      255
102
RTVSPost2010PropOp44
 70
     1
102
RTVSPost2010Prop45
280
     0
102
RTVSPost2010PropOp45
 70
     1
102
RTVSPost2010Prop46
 90
       50
102
RTVSPost2010PropOp46
 70
     1
102
RTVSPost2010Prop47
 90
       50
102
RTVSPost2010PropOp47
 70
     1
102
RTVSPost2010Prop48
 90
       50
102
RTVSPost2010PropOp48
 70
     1
102
RTVSPost2010Prop49
280
     0
102
RTVSPost2010PropOp49
 70
     1
102
RTVSPost2010Prop50
 90
       50
102
RTVSPost2010PropOp50
 70
     1
102
RTVSPost2010Prop51ColorIndex
 90
      256
102
RTVSPost2010Prop51ColorRGB
 90
-16777216
102
RTVSPost2010PropOp51
 70
     0
102
RTVSPost2010Prop52
140
1.0
102
RTVSPost2010PropOp52
 70
     0
102
RTVSPost2010Prop53
 90
        2
102
RTVSPost2010PropOp53
 70
     1
102
RTVSPost2010Prop54
  1
strokes_ogs.tif
102
RTVSPost2010PropOp54
 70
     1
102
RTVSPost2010Prop55
280
     0
102
RTVSPost2010PropOp55
 70
     1
102
RTVSPost2010Prop56
140
1.0
102
RTVSPost2010PropOp56
 70
     1
102
RTVSPost2010Prop57
140
1.0
102
RTVSPost2010PropOp57
 70
     1
  0
XRECORD
  5
50E1
102
{ACAD_REACTORS
330
50E0
102
}
330
50E0
100
AcDbXrecord
280
     1
102
RTVSPost2010Prop28
280
     0
102
RTVSPost2010PropOp28
 70
     1
102
RTVSPost2010Prop29
280
     1
102
RTVSPost2010PropOp29
 70
     1
102
RTVSPost2010Prop30
280
     1
102
RTVSPost2010PropOp30
 70
     1
102
RTVSPost2010Prop31
280
     0
102
RTVSPost2010PropOp31
 70
     1
102
RTVSPost2010Prop32
280
     0
102
RTVSPost2010PropOp32
 70
     1
102
RTVSPost2010Prop33
280
     0
102
RTVSPost2010PropOp33
 70
     1
102
RTVSPost2010Prop34
280
     0
102
RTVSPost2010PropOp34
 70
     1
102
RTVSPost2010Prop35
280
     0
102
RTVSPost2010PropOp35
 70
     1
102
RTVSPost2010Prop36
280
     0
102
RTVSPost2010PropOp36
 70
     1
102
RTVSPost2010Prop37
 90
       50
102
RTVSPost2010PropOp37
 70
     1
102
RTVSPost2010Prop38
140
0.0
102
RTVSPost2010PropOp38
 70
     1
102
RTVSPost2010Prop39
140
1.0
102
RTVSPost2010PropOp39
 70
     1
102
RTVSPost2010Prop40
 90
        0
102
RTVSPost2010PropOp40
 70
     1
102
RTVSPost2010Prop41ColorIndex
 90
       18
102
RTVSPost2010Prop41ColorRGB
 90
-16777216
102
RTVSPost2010PropOp41
 70
     1
102
RTVSPost2010Prop42
 90
       50
102
RTVSPost2010PropOp42
 70
     1
102
RTVSPost2010Prop43
 90
        3
102
RTVSPost2010PropOp43
 70
     1
102
RTVSPost2010Prop44ColorIndex
 90
        5
102
RTVSPost2010Prop44ColorRGB
 90
      255
102
RTVSPost2010PropOp44
 70
     1
102
RTVSPost2010Prop45
280
     0
102
RTVSPost2010PropOp45
 70
     1
102
RTVSPost2010Prop46
 90
       50
102
RTVSPost2010PropOp46
 70
     1
102
RTVSPost2010Prop47
 90
       50
102
RTVSPost2010PropOp47
 70
     1
102
RTVSPost2010Prop48
 90
       50
102
RTVSPost2010PropOp48
 70
     1
102
RTVSPost2010Prop49
280
     0
102
RTVSPost2010PropOp49
 70
     1
102
RTVSPost2010Prop50
 90
       50
102
RTVSPost2010PropOp50
 70
     1
102
RTVSPost2010Prop51ColorIndex
 90
      256
102
RTVSPost2010Prop51ColorRGB
 90
-16777216
102
RTVSPost2010PropOp51
 70
     0
102
RTVSPost2010Prop52
140
1.0
102
RTVSPost2010PropOp52
 70
     0
102
RTVSPost2010Prop53
 90
        2
102
RTVSPost2010PropOp53
 70
     1
102
RTVSPost2010Prop54
  1
strokes_ogs.tif
102
RTVSPost2010PropOp54
 70
     1
102
RTVSPost2010Prop55
280
     0
102
RTVSPost2010PropOp55
 70
     1
102
RTVSPost2010Prop56
140
1.0
102
RTVSPost2010PropOp56
 70
     1
102
RTVSPost2010Prop57
140
1.0
102
RTVSPost2010PropOp57
 70
     1
  0
XRECORD
  5
50E3
102
{ACAD_REACTORS
330
50E2
102
}
330
50E2
100
AcDbXrecord
280
     1
102
RTVSPost2010Prop28
280
     0
102
RTVSPost2010PropOp28
 70
     1
102
RTVSPost2010Prop29
280
     1
102
RTVSPost2010PropOp29
 70
     1
102
RTVSPost2010Prop30
280
     1
102
RTVSPost2010PropOp30
 70
     1
102
RTVSPost2010Prop31
280
     0
102
RTVSPost2010PropOp31
 70
     1
102
RTVSPost2010Prop32
280
     0
102
RTVSPost2010PropOp32
 70
     1
102
RTVSPost2010Prop33
280
     0
102
RTVSPost2010PropOp33
 70
     1
102
RTVSPost2010Prop34
280
     0
102
RTVSPost2010PropOp34
 70
     1
102
RTVSPost2010Prop35
280
     0
102
RTVSPost2010PropOp35
 70
     1
102
RTVSPost2010Prop36
280
     0
102
RTVSPost2010PropOp36
 70
     1
102
RTVSPost2010Prop37
 90
       50
102
RTVSPost2010PropOp37
 70
     1
102
RTVSPost2010Prop38
140
0.0
102
RTVSPost2010PropOp38
 70
     1
102
RTVSPost2010Prop39
140
1.0
102
RTVSPost2010PropOp39
 70
     1
102
RTVSPost2010Prop40
 90
        0
102
RTVSPost2010PropOp40
 70
     1
102
RTVSPost2010Prop41ColorIndex
 90
       18
102
RTVSPost2010Prop41ColorRGB
 90
-16777216
102
RTVSPost2010PropOp41
 70
     1
102
RTVSPost2010Prop42
 90
       50
102
RTVSPost2010PropOp42
 70
     1
102
RTVSPost2010Prop43
 90
        3
102
RTVSPost2010PropOp43
 70
     1
102
RTVSPost2010Prop44ColorIndex
 90
        5
102
RTVSPost2010Prop44ColorRGB
 90
      255
102
RTVSPost2010PropOp44
 70
     1
102
RTVSPost2010Prop45
280
     0
102
RTVSPost2010PropOp45
 70
     1
102
RTVSPost2010Prop46
 90
       50
102
RTVSPost2010PropOp46
 70
     1
102
RTVSPost2010Prop47
 90
       50
102
RTVSPost2010PropOp47
 70
     1
102
RTVSPost2010Prop48
 90
       50
102
RTVSPost2010PropOp48
 70
     1
102
RTVSPost2010Prop49
280
     0
102
RTVSPost2010PropOp49
 70
     1
102
RTVSPost2010Prop50
 90
       50
102
RTVSPost2010PropOp50
 70
     1
102
RTVSPost2010Prop51ColorIndex
 90
      256
102
RTVSPost2010Prop51ColorRGB
 90
-16777216
102
RTVSPost2010PropOp51
 70
     0
102
RTVSPost2010Prop52
140
1.0
102
RTVSPost2010PropOp52
 70
     0
102
RTVSPost2010Prop53
 90
        2
102
RTVSPost2010PropOp53
 70
     1
102
RTVSPost2010Prop54
  1
strokes_ogs.tif
102
RTVSPost2010PropOp54
 70
     1
102
RTVSPost2010Prop55
280
     0
102
RTVSPost2010PropOp55
 70
     1
102
RTVSPost2010Prop56
140
1.0
102
RTVSPost2010PropOp56
 70
     1
102
RTVSPost2010Prop57
140
1.0
102
RTVSPost2010PropOp57
 70
     1
  0
XRECORD
  5
50EB
102
{ACAD_REACTORS
330
50EA
102
}
330
50EA
100
AcDbXrecord
280
     1
102
RTVSPost2010Prop28
280
     0
102
RTVSPost2010PropOp28
 70
     1
102
RTVSPost2010Prop29
280
     1
102
RTVSPost2010PropOp29
 70
     1
102
RTVSPost2010Prop30
280
     1
102
RTVSPost2010PropOp30
 70
     1
102
RTVSPost2010Prop31
280
     0
102
RTVSPost2010PropOp31
 70
     1
102
RTVSPost2010Prop32
280
     0
102
RTVSPost2010PropOp32
 70
     1
102
RTVSPost2010Prop33
280
     0
102
RTVSPost2010PropOp33
 70
     1
102
RTVSPost2010Prop34
280
     0
102
RTVSPost2010PropOp34
 70
     1
102
RTVSPost2010Prop35
280
     0
102
RTVSPost2010PropOp35
 70
     1
102
RTVSPost2010Prop36
280
     0
102
RTVSPost2010PropOp36
 70
     1
102
RTVSPost2010Prop37
 90
       50
102
RTVSPost2010PropOp37
 70
     1
102
RTVSPost2010Prop38
140
0.0
102
RTVSPost2010PropOp38
 70
     1
102
RTVSPost2010Prop39
140
1.0
102
RTVSPost2010PropOp39
 70
     1
102
RTVSPost2010Prop40
 90
        0
102
RTVSPost2010PropOp40
 70
     1
102
RTVSPost2010Prop41ColorIndex
 90
       18
102
RTVSPost2010Prop41ColorRGB
 90
-16777216
102
RTVSPost2010PropOp41
 70
     1
102
RTVSPost2010Prop42
 90
       50
102
RTVSPost2010PropOp42
 70
     1
102
RTVSPost2010Prop43
 90
        3
102
RTVSPost2010PropOp43
 70
     1
102
RTVSPost2010Prop44ColorIndex
 90
        5
102
RTVSPost2010Prop44ColorRGB
 90
      255
102
RTVSPost2010PropOp44
 70
     1
102
RTVSPost2010Prop45
280
     0
102
RTVSPost2010PropOp45
 70
     1
102
RTVSPost2010Prop46
 90
       50
102
RTVSPost2010PropOp46
 70
     1
102
RTVSPost2010Prop47
 90
       50
102
RTVSPost2010PropOp47
 70
     1
102
RTVSPost2010Prop48
 90
       50
102
RTVSPost2010PropOp48
 70
     1
102
RTVSPost2010Prop49
280
     0
102
RTVSPost2010PropOp49
 70
     1
102
RTVSPost2010Prop50
 90
       50
102
RTVSPost2010PropOp50
 70
     1
102
RTVSPost2010Prop51ColorIndex
 90
      256
102
RTVSPost2010Prop51ColorRGB
 90
-16777216
102
RTVSPost2010PropOp51
 70
     0
102
RTVSPost2010Prop52
140
1.0
102
RTVSPost2010PropOp52
 70
     0
102
RTVSPost2010Prop53
 90
        2
102
RTVSPost2010PropOp53
 70
     1
102
RTVSPost2010Prop54
  1
strokes_ogs.tif
102
RTVSPost2010PropOp54
 70
     1
102
RTVSPost2010Prop55
280
     0
102
RTVSPost2010PropOp55
 70
     1
102
RTVSPost2010Prop56
140
1.0
102
RTVSPost2010PropOp56
 70
     1
102
RTVSPost2010Prop57
140
1.0
102
RTVSPost2010PropOp57
 70
     1
  0
XRECORD
  5
5107
102
{ACAD_REACTORS
330
5106
102
}
330
5106
100
AcDbXrecord
280
     1
102
RTVSPost2010Prop28
280
     0
102
RTVSPost2010PropOp28
 70
     1
102
RTVSPost2010Prop29
280
     1
102
RTVSPost2010PropOp29
 70
     1
102
RTVSPost2010Prop30
280
     1
102
RTVSPost2010PropOp30
 70
     1
102
RTVSPost2010Prop31
280
     0
102
RTVSPost2010PropOp31
 70
     1
102
RTVSPost2010Prop32
280
     0
102
RTVSPost2010PropOp32
 70
     1
102
RTVSPost2010Prop33
280
     0
102
RTVSPost2010PropOp33
 70
     1
102
RTVSPost2010Prop34
280
     0
102
RTVSPost2010PropOp34
 70
     1
102
RTVSPost2010Prop35
280
     0
102
RTVSPost2010PropOp35
 70
     1
102
RTVSPost2010Prop36
280
     0
102
RTVSPost2010PropOp36
 70
     1
102
RTVSPost2010Prop37
 90
       50
102
RTVSPost2010PropOp37
 70
     0
102
RTVSPost2010Prop38
140
0.0
102
RTVSPost2010PropOp38
 70
     0
102
RTVSPost2010Prop39
140
1.0
102
RTVSPost2010PropOp39
 70
     0
102
RTVSPost2010Prop40
 90
        0
102
RTVSPost2010PropOp40
 70
     0
102
RTVSPost2010Prop41ColorIndex
 90
       18
102
RTVSPost2010Prop41ColorRGB
 90
-16777216
102
RTVSPost2010PropOp41
 70
     0
102
RTVSPost2010Prop42
 90
       50
102
RTVSPost2010PropOp42
 70
     0
102
RTVSPost2010Prop43
 90
        3
102
RTVSPost2010PropOp43
 70
     0
102
RTVSPost2010Prop44ColorIndex
 90
        5
102
RTVSPost2010Prop44ColorRGB
 90
      255
102
RTVSPost2010PropOp44
 70
     0
102
RTVSPost2010Prop45
280
     0
102
RTVSPost2010PropOp45
 70
     1
102
RTVSPost2010Prop46
 90
       50
102
RTVSPost2010PropOp46
 70
     0
102
RTVSPost2010Prop47
 90
       50
102
RTVSPost2010PropOp47
 70
     0
102
RTVSPost2010Prop48
 90
       50
102
RTVSPost2010PropOp48
 70
     0
102
RTVSPost2010Prop49
280
     0
102
RTVSPost2010PropOp49
 70
     1
102
RTVSPost2010Prop50
 90
       50
102
RTVSPost2010PropOp50
 70
     0
102
RTVSPost2010Prop51ColorIndex
 90
      256
102
RTVSPost2010Prop51ColorRGB
 90
-16777216
102
RTVSPost2010PropOp51
 70
     0
102
RTVSPost2010Prop52
140
1.0
102
RTVSPost2010PropOp52
 70
     0
102
RTVSPost2010Prop53
 90
        2
102
RTVSPost2010PropOp53
 70
     0
102
RTVSPost2010Prop54
  1
strokes_ogs.tif
102
RTVSPost2010PropOp54
 70
     0
102
RTVSPost2010Prop55
280
     0
102
RTVSPost2010PropOp55
 70
     1
102
RTVSPost2010Prop56
140
1.0
102
RTVSPost2010PropOp56
 70
     0
102
RTVSPost2010Prop57
140
1.0
102
RTVSPost2010PropOp57
 70
     0
  0
XRECORD
  5
50F7
102
{ACAD_REACTORS
330
50F6
102
}
330
50F6
100
AcDbXrecord
280
     1
102
RTVSPost2010Prop28
280
     0
102
RTVSPost2010PropOp28
 70
     1
102
RTVSPost2010Prop29
280
     1
102
RTVSPost2010PropOp29
 70
     1
102
RTVSPost2010Prop30
280
     1
102
RTVSPost2010PropOp30
 70
     1
102
RTVSPost2010Prop31
280
     0
102
RTVSPost2010PropOp31
 70
     1
102
RTVSPost2010Prop32
280
     0
102
RTVSPost2010PropOp32
 70
     1
102
RTVSPost2010Prop33
280
     0
102
RTVSPost2010PropOp33
 70
     1
102
RTVSPost2010Prop34
280
     0
102
RTVSPost2010PropOp34
 70
     1
102
RTVSPost2010Prop35
280
     0
102
RTVSPost2010PropOp35
 70
     1
102
RTVSPost2010Prop36
280
     0
102
RTVSPost2010PropOp36
 70
     1
102
RTVSPost2010Prop37
 90
       50
102
RTVSPost2010PropOp37
 70
     1
102
RTVSPost2010Prop38
140
0.0
102
RTVSPost2010PropOp38
 70
     1
102
RTVSPost2010Prop39
140
1.0
102
RTVSPost2010PropOp39
 70
     1
102
RTVSPost2010Prop40
 90
        0
102
RTVSPost2010PropOp40
 70
     1
102
RTVSPost2010Prop41ColorIndex
 90
       18
102
RTVSPost2010Prop41ColorRGB
 90
-16777216
102
RTVSPost2010PropOp41
 70
     1
102
RTVSPost2010Prop42
 90
       50
102
RTVSPost2010PropOp42
 70
     1
102
RTVSPost2010Prop43
 90
        3
102
RTVSPost2010PropOp43
 70
     1
102
RTVSPost2010Prop44ColorIndex
 90
        5
102
RTVSPost2010Prop44ColorRGB
 90
      255
102
RTVSPost2010PropOp44
 70
     1
102
RTVSPost2010Prop45
280
     0
102
RTVSPost2010PropOp45
 70
     1
102
RTVSPost2010Prop46
 90
       50
102
RTVSPost2010PropOp46
 70
     1
102
RTVSPost2010Prop47
 90
       50
102
RTVSPost2010PropOp47
 70
     1
102
RTVSPost2010Prop48
 90
       50
102
RTVSPost2010PropOp48
 70
     1
102
RTVSPost2010Prop49
280
     0
102
RTVSPost2010PropOp49
 70
     1
102
RTVSPost2010Prop50
 90
       50
102
RTVSPost2010PropOp50
 70
     1
102
RTVSPost2010Prop51ColorIndex
 90
      256
102
RTVSPost2010Prop51ColorRGB
 90
-16777216
102
RTVSPost2010PropOp51
 70
     0
102
RTVSPost2010Prop52
140
1.0
102
RTVSPost2010PropOp52
 70
     0
102
RTVSPost2010Prop53
 90
        2
102
RTVSPost2010PropOp53
 70
     1
102
RTVSPost2010Prop54
  1
strokes_ogs.tif
102
RTVSPost2010PropOp54
 70
     1
102
RTVSPost2010Prop55
280
     0
102
RTVSPost2010PropOp55
 70
     1
102
RTVSPost2010Prop56
140
1.0
102
RTVSPost2010PropOp56
 70
     1
102
RTVSPost2010Prop57
140
1.0
102
RTVSPost2010PropOp57
 70
     1
  0
XRECORD
  5
5109
102
{ACAD_REACTORS
330
5108
102
}
330
5108
100
AcDbXrecord
280
     1
102
RTVSPost2010Prop28
280
     0
102
RTVSPost2010PropOp28
 70
     1
102
RTVSPost2010Prop29
280
     1
102
RTVSPost2010PropOp29
 70
     1
102
RTVSPost2010Prop30
280
     1
102
RTVSPost2010PropOp30
 70
     1
102
RTVSPost2010Prop31
280
     0
102
RTVSPost2010PropOp31
 70
     1
102
RTVSPost2010Prop32
280
     0
102
RTVSPost2010PropOp32
 70
     1
102
RTVSPost2010Prop33
280
     0
102
RTVSPost2010PropOp33
 70
     1
102
RTVSPost2010Prop34
280
     0
102
RTVSPost2010PropOp34
 70
     1
102
RTVSPost2010Prop35
280
     0
102
RTVSPost2010PropOp35
 70
     1
102
RTVSPost2010Prop36
280
     0
102
RTVSPost2010PropOp36
 70
     1
102
RTVSPost2010Prop37
 90
       50
102
RTVSPost2010PropOp37
 70
     0
102
RTVSPost2010Prop38
140
0.0
102
RTVSPost2010PropOp38
 70
     0
102
RTVSPost2010Prop39
140
1.0
102
RTVSPost2010PropOp39
 70
     0
102
RTVSPost2010Prop40
 90
        0
102
RTVSPost2010PropOp40
 70
     0
102
RTVSPost2010Prop41ColorIndex
 90
       18
102
RTVSPost2010Prop41ColorRGB
 90
-16777216
102
RTVSPost2010PropOp41
 70
     0
102
RTVSPost2010Prop42
 90
       50
102
RTVSPost2010PropOp42
 70
     0
102
RTVSPost2010Prop43
 90
        3
102
RTVSPost2010PropOp43
 70
     0
102
RTVSPost2010Prop44ColorIndex
 90
        5
102
RTVSPost2010Prop44ColorRGB
 90
      255
102
RTVSPost2010PropOp44
 70
     0
102
RTVSPost2010Prop45
280
     0
102
RTVSPost2010PropOp45
 70
     1
102
RTVSPost2010Prop46
 90
       50
102
RTVSPost2010PropOp46
 70
     0
102
RTVSPost2010Prop47
 90
       50
102
RTVSPost2010PropOp47
 70
     0
102
RTVSPost2010Prop48
 90
       50
102
RTVSPost2010PropOp48
 70
     0
102
RTVSPost2010Prop49
280
     0
102
RTVSPost2010PropOp49
 70
     1
102
RTVSPost2010Prop50
 90
       50
102
RTVSPost2010PropOp50
 70
     0
102
RTVSPost2010Prop51ColorIndex
 90
      256
102
RTVSPost2010Prop51ColorRGB
 90
-16777216
102
RTVSPost2010PropOp51
 70
     0
102
RTVSPost2010Prop52
140
1.0
102
RTVSPost2010PropOp52
 70
     0
102
RTVSPost2010Prop53
 90
        2
102
RTVSPost2010PropOp53
 70
     0
102
RTVSPost2010Prop54
  1
strokes_ogs.tif
102
RTVSPost2010PropOp54
 70
     0
102
RTVSPost2010Prop55
280
     0
102
RTVSPost2010PropOp55
 70
     1
102
RTVSPost2010Prop56
140
1.0
102
RTVSPost2010PropOp56
 70
     0
102
RTVSPost2010Prop57
140
1.0
102
RTVSPost2010PropOp57
 70
     0
  0
XRECORD
  5
50EF
102
{ACAD_REACTORS
330
50EE
102
}
330
50EE
100
AcDbXrecord
280
     1
102
RTVSPost2010Prop28
280
     0
102
RTVSPost2010PropOp28
 70
     1
102
RTVSPost2010Prop29
280
     1
102
RTVSPost2010PropOp29
 70
     1
102
RTVSPost2010Prop30
280
     1
102
RTVSPost2010PropOp30
 70
     1
102
RTVSPost2010Prop31
280
     0
102
RTVSPost2010PropOp31
 70
     1
102
RTVSPost2010Prop32
280
     0
102
RTVSPost2010PropOp32
 70
     1
102
RTVSPost2010Prop33
280
     0
102
RTVSPost2010PropOp33
 70
     1
102
RTVSPost2010Prop34
280
     0
102
RTVSPost2010PropOp34
 70
     1
102
RTVSPost2010Prop35
280
     0
102
RTVSPost2010PropOp35
 70
     1
102
RTVSPost2010Prop36
280
     0
102
RTVSPost2010PropOp36
 70
     1
102
RTVSPost2010Prop37
 90
       50
102
RTVSPost2010PropOp37
 70
     1
102
RTVSPost2010Prop38
140
0.0
102
RTVSPost2010PropOp38
 70
     1
102
RTVSPost2010Prop39
140
1.0
102
RTVSPost2010PropOp39
 70
     1
102
RTVSPost2010Prop40
 90
        0
102
RTVSPost2010PropOp40
 70
     1
102
RTVSPost2010Prop41ColorIndex
 90
       18
102
RTVSPost2010Prop41ColorRGB
 90
-16777216
102
RTVSPost2010PropOp41
 70
     1
102
RTVSPost2010Prop42
 90
       50
102
RTVSPost2010PropOp42
 70
     1
102
RTVSPost2010Prop43
 90
        3
102
RTVSPost2010PropOp43
 70
     1
102
RTVSPost2010Prop44ColorIndex
 90
        5
102
RTVSPost2010Prop44ColorRGB
 90
      255
102
RTVSPost2010PropOp44
 70
     1
102
RTVSPost2010Prop45
280
     0
102
RTVSPost2010PropOp45
 70
     1
102
RTVSPost2010Prop46
 90
       50
102
RTVSPost2010PropOp46
 70
     1
102
RTVSPost2010Prop47
 90
       50
102
RTVSPost2010PropOp47
 70
     1
102
RTVSPost2010Prop48
 90
       50
102
RTVSPost2010PropOp48
 70
     1
102
RTVSPost2010Prop49
280
     0
102
RTVSPost2010PropOp49
 70
     1
102
RTVSPost2010Prop50
 90
       50
102
RTVSPost2010PropOp50
 70
     1
102
RTVSPost2010Prop51ColorIndex
 90
      256
102
RTVSPost2010Prop51ColorRGB
 90
-16777216
102
RTVSPost2010PropOp51
 70
     0
102
RTVSPost2010Prop52
140
1.0
102
RTVSPost2010PropOp52
 70
     0
102
RTVSPost2010Prop53
 90
        2
102
RTVSPost2010PropOp53
 70
     1
102
RTVSPost2010Prop54
  1
strokes_ogs.tif
102
RTVSPost2010PropOp54
 70
     1
102
RTVSPost2010Prop55
280
     0
102
RTVSPost2010PropOp55
 70
     1
102
RTVSPost2010Prop56
140
1.0
102
RTVSPost2010PropOp56
 70
     1
102
RTVSPost2010Prop57
140
1.0
102
RTVSPost2010PropOp57
 70
     1
  0
XRECORD
  5
5105
102
{ACAD_REACTORS
330
5104
102
}
330
5104
100
AcDbXrecord
280
     1
102
RTVSPost2010Prop28
280
     0
102
RTVSPost2010PropOp28
 70
     1
102
RTVSPost2010Prop29
280
     1
102
RTVSPost2010PropOp29
 70
     1
102
RTVSPost2010Prop30
280
     1
102
RTVSPost2010PropOp30
 70
     1
102
RTVSPost2010Prop31
280
     0
102
RTVSPost2010PropOp31
 70
     1
102
RTVSPost2010Prop32
280
     0
102
RTVSPost2010PropOp32
 70
     1
102
RTVSPost2010Prop33
280
     0
102
RTVSPost2010PropOp33
 70
     1
102
RTVSPost2010Prop34
280
     0
102
RTVSPost2010PropOp34
 70
     1
102
RTVSPost2010Prop35
280
     0
102
RTVSPost2010PropOp35
 70
     1
102
RTVSPost2010Prop36
280
     0
102
RTVSPost2010PropOp36
 70
     1
102
RTVSPost2010Prop37
 90
       50
102
RTVSPost2010PropOp37
 70
     1
102
RTVSPost2010Prop38
140
0.0
102
RTVSPost2010PropOp38
 70
     1
102
RTVSPost2010Prop39
140
1.0
102
RTVSPost2010PropOp39
 70
     1
102
RTVSPost2010Prop40
 90
        0
102
RTVSPost2010PropOp40
 70
     1
102
RTVSPost2010Prop41ColorIndex
 90
       18
102
RTVSPost2010Prop41ColorRGB
 90
-16777216
102
RTVSPost2010PropOp41
 70
     1
102
RTVSPost2010Prop42
 90
       50
102
RTVSPost2010PropOp42
 70
     1
102
RTVSPost2010Prop43
 90
        3
102
RTVSPost2010PropOp43
 70
     1
102
RTVSPost2010Prop44ColorIndex
 90
        5
102
RTVSPost2010Prop44ColorRGB
 90
      255
102
RTVSPost2010PropOp44
 70
     1
102
RTVSPost2010Prop45
280
     0
102
RTVSPost2010PropOp45
 70
     1
102
RTVSPost2010Prop46
 90
       50
102
RTVSPost2010PropOp46
 70
     1
102
RTVSPost2010Prop47
 90
       50
102
RTVSPost2010PropOp47
 70
     1
102
RTVSPost2010Prop48
 90
       50
102
RTVSPost2010PropOp48
 70
     1
102
RTVSPost2010Prop49
280
     0
102
RTVSPost2010PropOp49
 70
     1
102
RTVSPost2010Prop50
 90
       50
102
RTVSPost2010PropOp50
 70
     1
102
RTVSPost2010Prop51ColorIndex
 90
      256
102
RTVSPost2010Prop51ColorRGB
 90
-16777216
102
RTVSPost2010PropOp51
 70
     0
102
RTVSPost2010Prop52
140
1.0
102
RTVSPost2010PropOp52
 70
     0
102
RTVSPost2010Prop53
 90
        2
102
RTVSPost2010PropOp53
 70
     1
102
RTVSPost2010Prop54
  1
strokes_ogs.tif
102
RTVSPost2010PropOp54
 70
     1
102
RTVSPost2010Prop55
280
     0
102
RTVSPost2010PropOp55
 70
     1
102
RTVSPost2010Prop56
140
1.0
102
RTVSPost2010PropOp56
 70
     1
102
RTVSPost2010Prop57
140
1.0
102
RTVSPost2010PropOp57
 70
     1
  0
XRECORD
  5
5103
102
{ACAD_REACTORS
330
5102
102
}
330
5102
100
AcDbXrecord
280
     1
102
RTVSPost2010Prop28
280
     0
102
RTVSPost2010PropOp28
 70
     1
102
RTVSPost2010Prop29
280
     1
102
RTVSPost2010PropOp29
 70
     1
102
RTVSPost2010Prop30
280
     1
102
RTVSPost2010PropOp30
 70
     1
102
RTVSPost2010Prop31
280
     0
102
RTVSPost2010PropOp31
 70
     1
102
RTVSPost2010Prop32
280
     0
102
RTVSPost2010PropOp32
 70
     1
102
RTVSPost2010Prop33
280
     0
102
RTVSPost2010PropOp33
 70
     1
102
RTVSPost2010Prop34
280
     0
102
RTVSPost2010PropOp34
 70
     1
102
RTVSPost2010Prop35
280
     0
102
RTVSPost2010PropOp35
 70
     1
102
RTVSPost2010Prop36
280
     0
102
RTVSPost2010PropOp36
 70
     1
102
RTVSPost2010Prop37
 90
       50
102
RTVSPost2010PropOp37
 70
     1
102
RTVSPost2010Prop38
140
0.0
102
RTVSPost2010PropOp38
 70
     1
102
RTVSPost2010Prop39
140
1.0
102
RTVSPost2010PropOp39
 70
     1
102
RTVSPost2010Prop40
 90
        0
102
RTVSPost2010PropOp40
 70
     1
102
RTVSPost2010Prop41ColorIndex
 90
       18
102
RTVSPost2010Prop41ColorRGB
 90
-16777216
102
RTVSPost2010PropOp41
 70
     1
102
RTVSPost2010Prop42
 90
       50
102
RTVSPost2010PropOp42
 70
     1
102
RTVSPost2010Prop43
 90
        3
102
RTVSPost2010PropOp43
 70
     1
102
RTVSPost2010Prop44ColorIndex
 90
        5
102
RTVSPost2010Prop44ColorRGB
 90
      255
102
RTVSPost2010PropOp44
 70
     1
102
RTVSPost2010Prop45
280
     0
102
RTVSPost2010PropOp45
 70
     1
102
RTVSPost2010Prop46
 90
       50
102
RTVSPost2010PropOp46
 70
     1
102
RTVSPost2010Prop47
 90
       50
102
RTVSPost2010PropOp47
 70
     1
102
RTVSPost2010Prop48
 90
       50
102
RTVSPost2010PropOp48
 70
     1
102
RTVSPost2010Prop49
280
     0
102
RTVSPost2010PropOp49
 70
     1
102
RTVSPost2010Prop50
 90
       50
102
RTVSPost2010PropOp50
 70
     1
102
RTVSPost2010Prop51ColorIndex
 90
      256
102
RTVSPost2010Prop51ColorRGB
 90
-16777216
102
RTVSPost2010PropOp51
 70
     0
102
RTVSPost2010Prop52
140
1.0
102
RTVSPost2010PropOp52
 70
     0
102
RTVSPost2010Prop53
 90
        2
102
RTVSPost2010PropOp53
 70
     1
102
RTVSPost2010Prop54
  1
strokes_ogs.tif
102
RTVSPost2010PropOp54
 70
     1
102
RTVSPost2010Prop55
280
     0
102
RTVSPost2010PropOp55
 70
     1
102
RTVSPost2010Prop56
140
1.0
102
RTVSPost2010PropOp56
 70
     1
102
RTVSPost2010Prop57
140
1.0
102
RTVSPost2010PropOp57
 70
     1
  0
XRECORD
  5
50FD
102
{ACAD_REACTORS
330
50FC
102
}
330
50FC
100
AcDbXrecord
280
     1
102
RTVSPost2010Prop28
280
     0
102
RTVSPost2010PropOp28
 70
     1
102
RTVSPost2010Prop29
280
     1
102
RTVSPost2010PropOp29
 70
     1
102
RTVSPost2010Prop30
280
     1
102
RTVSPost2010PropOp30
 70
     1
102
RTVSPost2010Prop31
280
     0
102
RTVSPost2010PropOp31
 70
     1
102
RTVSPost2010Prop32
280
     0
102
RTVSPost2010PropOp32
 70
     1
102
RTVSPost2010Prop33
280
     0
102
RTVSPost2010PropOp33
 70
     1
102
RTVSPost2010Prop34
280
     0
102
RTVSPost2010PropOp34
 70
     1
102
RTVSPost2010Prop35
280
     0
102
RTVSPost2010PropOp35
 70
     1
102
RTVSPost2010Prop36
280
     0
102
RTVSPost2010PropOp36
 70
     1
102
RTVSPost2010Prop37
 90
       50
102
RTVSPost2010PropOp37
 70
     1
102
RTVSPost2010Prop38
140
0.0
102
RTVSPost2010PropOp38
 70
     1
102
RTVSPost2010Prop39
140
1.0
102
RTVSPost2010PropOp39
 70
     1
102
RTVSPost2010Prop40
 90
        0
102
RTVSPost2010PropOp40
 70
     1
102
RTVSPost2010Prop41ColorIndex
 90
       18
102
RTVSPost2010Prop41ColorRGB
 90
-16777216
102
RTVSPost2010PropOp41
 70
     1
102
RTVSPost2010Prop42
 90
       50
102
RTVSPost2010PropOp42
 70
     1
102
RTVSPost2010Prop43
 90
        3
102
RTVSPost2010PropOp43
 70
     1
102
RTVSPost2010Prop44ColorIndex
 90
        5
102
RTVSPost2010Prop44ColorRGB
 90
      255
102
RTVSPost2010PropOp44
 70
     1
102
RTVSPost2010Prop45
280
     0
102
RTVSPost2010PropOp45
 70
     1
102
RTVSPost2010Prop46
 90
       50
102
RTVSPost2010PropOp46
 70
     1
102
RTVSPost2010Prop47
 90
       50
102
RTVSPost2010PropOp47
 70
     1
102
RTVSPost2010Prop48
 90
       50
102
RTVSPost2010PropOp48
 70
     1
102
RTVSPost2010Prop49
280
     0
102
RTVSPost2010PropOp49
 70
     1
102
RTVSPost2010Prop50
 90
       50
102
RTVSPost2010PropOp50
 70
     1
102
RTVSPost2010Prop51ColorIndex
 90
      256
102
RTVSPost2010Prop51ColorRGB
 90
-16777216
102
RTVSPost2010PropOp51
 70
     0
102
RTVSPost2010Prop52
140
1.0
102
RTVSPost2010PropOp52
 70
     0
102
RTVSPost2010Prop53
 90
        2
102
RTVSPost2010PropOp53
 70
     1
102
RTVSPost2010Prop54
  1
strokes_ogs.tif
102
RTVSPost2010PropOp54
 70
     1
102
RTVSPost2010Prop55
280
     0
102
RTVSPost2010PropOp55
 70
     1
102
RTVSPost2010Prop56
140
1.0
102
RTVSPost2010PropOp56
 70
     1
102
RTVSPost2010Prop57
140
1.0
102
RTVSPost2010PropOp57
 70
     1
  0
XRECORD
  5
50FF
102
{ACAD_REACTORS
330
50FE
102
}
330
50FE
100
AcDbXrecord
280
     1
102
RTVSPost2010Prop28
280
     0
102
RTVSPost2010PropOp28
 70
     1
102
RTVSPost2010Prop29
280
     1
102
RTVSPost2010PropOp29
 70
     1
102
RTVSPost2010Prop30
280
     1
102
RTVSPost2010PropOp30
 70
     1
102
RTVSPost2010Prop31
280
     0
102
RTVSPost2010PropOp31
 70
     1
102
RTVSPost2010Prop32
280
     0
102
RTVSPost2010PropOp32
 70
     1
102
RTVSPost2010Prop33
280
     0
102
RTVSPost2010PropOp33
 70
     1
102
RTVSPost2010Prop34
280
     0
102
RTVSPost2010PropOp34
 70
     1
102
RTVSPost2010Prop35
280
     0
102
RTVSPost2010PropOp35
 70
     1
102
RTVSPost2010Prop36
280
     0
102
RTVSPost2010PropOp36
 70
     1
102
RTVSPost2010Prop37
 90
       50
102
RTVSPost2010PropOp37
 70
     1
102
RTVSPost2010Prop38
140
0.0
102
RTVSPost2010PropOp38
 70
     1
102
RTVSPost2010Prop39
140
1.0
102
RTVSPost2010PropOp39
 70
     1
102
RTVSPost2010Prop40
 90
        0
102
RTVSPost2010PropOp40
 70
     1
102
RTVSPost2010Prop41ColorIndex
 90
       18
102
RTVSPost2010Prop41ColorRGB
 90
-16777216
102
RTVSPost2010PropOp41
 70
     1
102
RTVSPost2010Prop42
 90
       50
102
RTVSPost2010PropOp42
 70
     1
102
RTVSPost2010Prop43
 90
        3
102
RTVSPost2010PropOp43
 70
     1
102
RTVSPost2010Prop44ColorIndex
 90
        5
102
RTVSPost2010Prop44ColorRGB
 90
      255
102
RTVSPost2010PropOp44
 70
     1
102
RTVSPost2010Prop45
280
     0
102
RTVSPost2010PropOp45
 70
     1
102
RTVSPost2010Prop46
 90
       50
102
RTVSPost2010PropOp46
 70
     1
102
RTVSPost2010Prop47
 90
       50
102
RTVSPost2010PropOp47
 70
     1
102
RTVSPost2010Prop48
 90
       50
102
RTVSPost2010PropOp48
 70
     1
102
RTVSPost2010Prop49
280
     0
102
RTVSPost2010PropOp49
 70
     1
102
RTVSPost2010Prop50
 90
       50
102
RTVSPost2010PropOp50
 70
     1
102
RTVSPost2010Prop51ColorIndex
 90
      256
102
RTVSPost2010Prop51ColorRGB
 90
-16777216
102
RTVSPost2010PropOp51
 70
     0
102
RTVSPost2010Prop52
140
1.0
102
RTVSPost2010PropOp52
 70
     0
102
RTVSPost2010Prop53
 90
        2
102
RTVSPost2010PropOp53
 70
     1
102
RTVSPost2010Prop54
  1
strokes_ogs.tif
102
RTVSPost2010PropOp54
 70
     1
102
RTVSPost2010Prop55
280
     0
102
RTVSPost2010PropOp55
 70
     1
102
RTVSPost2010Prop56
140
1.0
102
RTVSPost2010PropOp56
 70
     1
102
RTVSPost2010Prop57
140
1.0
102
RTVSPost2010PropOp57
 70
     1
  0
XRECORD
  5
50F5
102
{ACAD_REACTORS
330
50F4
102
}
330
50F4
100
AcDbXrecord
280
     1
102
RTVSPost2010Prop28
280
     0
102
RTVSPost2010PropOp28
 70
     1
102
RTVSPost2010Prop29
280
     1
102
RTVSPost2010PropOp29
 70
     1
102
RTVSPost2010Prop30
280
     1
102
RTVSPost2010PropOp30
 70
     1
102
RTVSPost2010Prop31
280
     0
102
RTVSPost2010PropOp31
 70
     1
102
RTVSPost2010Prop32
280
     0
102
RTVSPost2010PropOp32
 70
     1
102
RTVSPost2010Prop33
280
     0
102
RTVSPost2010PropOp33
 70
     1
102
RTVSPost2010Prop34
280
     0
102
RTVSPost2010PropOp34
 70
     1
102
RTVSPost2010Prop35
280
     0
102
RTVSPost2010PropOp35
 70
     1
102
RTVSPost2010Prop36
280
     0
102
RTVSPost2010PropOp36
 70
     1
102
RTVSPost2010Prop37
 90
       50
102
RTVSPost2010PropOp37
 70
     1
102
RTVSPost2010Prop38
140
0.0
102
RTVSPost2010PropOp38
 70
     1
102
RTVSPost2010Prop39
140
1.0
102
RTVSPost2010PropOp39
 70
     1
102
RTVSPost2010Prop40
 90
        0
102
RTVSPost2010PropOp40
 70
     1
102
RTVSPost2010Prop41ColorIndex
 90
       18
102
RTVSPost2010Prop41ColorRGB
 90
-16777216
102
RTVSPost2010PropOp41
 70
     1
102
RTVSPost2010Prop42
 90
       50
102
RTVSPost2010PropOp42
 70
     1
102
RTVSPost2010Prop43
 90
        3
102
RTVSPost2010PropOp43
 70
     1
102
RTVSPost2010Prop44ColorIndex
 90
        5
102
RTVSPost2010Prop44ColorRGB
 90
      255
102
RTVSPost2010PropOp44
 70
     1
102
RTVSPost2010Prop45
280
     0
102
RTVSPost2010PropOp45
 70
     1
102
RTVSPost2010Prop46
 90
       50
102
RTVSPost2010PropOp46
 70
     1
102
RTVSPost2010Prop47
 90
       50
102
RTVSPost2010PropOp47
 70
     1
102
RTVSPost2010Prop48
 90
       50
102
RTVSPost2010PropOp48
 70
     1
102
RTVSPost2010Prop49
280
     0
102
RTVSPost2010PropOp49
 70
     1
102
RTVSPost2010Prop50
 90
       50
102
RTVSPost2010PropOp50
 70
     1
102
RTVSPost2010Prop51ColorIndex
 90
      256
102
RTVSPost2010Prop51ColorRGB
 90
-16777216
102
RTVSPost2010PropOp51
 70
     0
102
RTVSPost2010Prop52
140
1.0
102
RTVSPost2010PropOp52
 70
     0
102
RTVSPost2010Prop53
 90
        2
102
RTVSPost2010PropOp53
 70
     1
102
RTVSPost2010Prop54
  1
strokes_ogs.tif
102
RTVSPost2010PropOp54
 70
     1
102
RTVSPost2010Prop55
280
     0
102
RTVSPost2010PropOp55
 70
     1
102
RTVSPost2010Prop56
140
1.0
102
RTVSPost2010PropOp56
 70
     1
102
RTVSPost2010Prop57
140
1.0
102
RTVSPost2010PropOp57
 70
     1
  0
XRECORD
  5
50E9
102
{ACAD_REACTORS
330
50E8
102
}
330
50E8
100
AcDbXrecord
280
     1
102
RTVSPost2010Prop28
280
     0
102
RTVSPost2010PropOp28
 70
     1
102
RTVSPost2010Prop29
280
     1
102
RTVSPost2010PropOp29
 70
     1
102
RTVSPost2010Prop30
280
     1
102
RTVSPost2010PropOp30
 70
     1
102
RTVSPost2010Prop31
280
     0
102
RTVSPost2010PropOp31
 70
     1
102
RTVSPost2010Prop32
280
     0
102
RTVSPost2010PropOp32
 70
     1
102
RTVSPost2010Prop33
280
     0
102
RTVSPost2010PropOp33
 70
     1
102
RTVSPost2010Prop34
280
     0
102
RTVSPost2010PropOp34
 70
     1
102
RTVSPost2010Prop35
280
     0
102
RTVSPost2010PropOp35
 70
     1
102
RTVSPost2010Prop36
280
     0
102
RTVSPost2010PropOp36
 70
     1
102
RTVSPost2010Prop37
 90
       50
102
RTVSPost2010PropOp37
 70
     1
102
RTVSPost2010Prop38
140
0.0
102
RTVSPost2010PropOp38
 70
     1
102
RTVSPost2010Prop39
140
1.0
102
RTVSPost2010PropOp39
 70
     1
102
RTVSPost2010Prop40
 90
        0
102
RTVSPost2010PropOp40
 70
     1
102
RTVSPost2010Prop41ColorIndex
 90
       18
102
RTVSPost2010Prop41ColorRGB
 90
-16777216
102
RTVSPost2010PropOp41
 70
     1
102
RTVSPost2010Prop42
 90
       50
102
RTVSPost2010PropOp42
 70
     1
102
RTVSPost2010Prop43
 90
        3
102
RTVSPost2010PropOp43
 70
     1
102
RTVSPost2010Prop44ColorIndex
 90
        5
102
RTVSPost2010Prop44ColorRGB
 90
      255
102
RTVSPost2010PropOp44
 70
     1
102
RTVSPost2010Prop45
280
     0
102
RTVSPost2010PropOp45
 70
     1
102
RTVSPost2010Prop46
 90
       50
102
RTVSPost2010PropOp46
 70
     1
102
RTVSPost2010Prop47
 90
       50
102
RTVSPost2010PropOp47
 70
     1
102
RTVSPost2010Prop48
 90
       50
102
RTVSPost2010PropOp48
 70
     1
102
RTVSPost2010Prop49
280
     0
102
RTVSPost2010PropOp49
 70
     1
102
RTVSPost2010Prop50
 90
       50
102
RTVSPost2010PropOp50
 70
     1
102
RTVSPost2010Prop51ColorIndex
 90
      256
102
RTVSPost2010Prop51ColorRGB
 90
-16777216
102
RTVSPost2010PropOp51
 70
     0
102
RTVSPost2010Prop52
140
1.0
102
RTVSPost2010PropOp52
 70
     0
102
RTVSPost2010Prop53
 90
        2
102
RTVSPost2010PropOp53
 70
     1
102
RTVSPost2010Prop54
  1
strokes_ogs.tif
102
RTVSPost2010PropOp54
 70
     1
102
RTVSPost2010Prop55
280
     0
102
RTVSPost2010PropOp55
 70
     1
102
RTVSPost2010Prop56
140
1.0
102
RTVSPost2010PropOp56
 70
     1
102
RTVSPost2010Prop57
140
1.0
102
RTVSPost2010PropOp57
 70
     1
  0
XRECORD
  5
5101
102
{ACAD_REACTORS
330
5100
102
}
330
5100
100
AcDbXrecord
280
     1
102
RTVSPost2010Prop28
280
     0
102
RTVSPost2010PropOp28
 70
     1
102
RTVSPost2010Prop29
280
     1
102
RTVSPost2010PropOp29
 70
     1
102
RTVSPost2010Prop30
280
     1
102
RTVSPost2010PropOp30
 70
     1
102
RTVSPost2010Prop31
280
     0
102
RTVSPost2010PropOp31
 70
     1
102
RTVSPost2010Prop32
280
     0
102
RTVSPost2010PropOp32
 70
     1
102
RTVSPost2010Prop33
280
     0
102
RTVSPost2010PropOp33
 70
     1
102
RTVSPost2010Prop34
280
     0
102
RTVSPost2010PropOp34
 70
     1
102
RTVSPost2010Prop35
280
     0
102
RTVSPost2010PropOp35
 70
     1
102
RTVSPost2010Prop36
280
     0
102
RTVSPost2010PropOp36
 70
     1
102
RTVSPost2010Prop37
 90
       50
102
RTVSPost2010PropOp37
 70
     1
102
RTVSPost2010Prop38
140
0.0
102
RTVSPost2010PropOp38
 70
     1
102
RTVSPost2010Prop39
140
1.0
102
RTVSPost2010PropOp39
 70
     1
102
RTVSPost2010Prop40
 90
        0
102
RTVSPost2010PropOp40
 70
     1
102
RTVSPost2010Prop41ColorIndex
 90
       18
102
RTVSPost2010Prop41ColorRGB
 90
-16777216
102
RTVSPost2010PropOp41
 70
     1
102
RTVSPost2010Prop42
 90
       50
102
RTVSPost2010PropOp42
 70
     1
102
RTVSPost2010Prop43
 90
        3
102
RTVSPost2010PropOp43
 70
     1
102
RTVSPost2010Prop44ColorIndex
 90
        5
102
RTVSPost2010Prop44ColorRGB
 90
      255
102
RTVSPost2010PropOp44
 70
     1
102
RTVSPost2010Prop45
280
     0
102
RTVSPost2010PropOp45
 70
     1
102
RTVSPost2010Prop46
 90
       50
102
RTVSPost2010PropOp46
 70
     1
102
RTVSPost2010Prop47
 90
       50
102
RTVSPost2010PropOp47
 70
     1
102
RTVSPost2010Prop48
 90
       50
102
RTVSPost2010PropOp48
 70
     1
102
RTVSPost2010Prop49
280
     0
102
RTVSPost2010PropOp49
 70
     1
102
RTVSPost2010Prop50
 90
       50
102
RTVSPost2010PropOp50
 70
     1
102
RTVSPost2010Prop51ColorIndex
 90
      256
102
RTVSPost2010Prop51ColorRGB
 90
-16777216
102
RTVSPost2010PropOp51
 70
     0
102
RTVSPost2010Prop52
140
1.0
102
RTVSPost2010PropOp52
 70
     0
102
RTVSPost2010Prop53
 90
        2
102
RTVSPost2010PropOp53
 70
     1
102
RTVSPost2010Prop54
  1
strokes_ogs.tif
102
RTVSPost2010PropOp54
 70
     1
102
RTVSPost2010Prop55
280
     0
102
RTVSPost2010PropOp55
 70
     1
102
RTVSPost2010Prop56
140
1.0
102
RTVSPost2010PropOp56
 70
     1
102
RTVSPost2010Prop57
140
1.0
102
RTVSPost2010PropOp57
 70
     1
  0
ENDSEC
  0
EOF
